<?xml version="1.0" standalone="no"?>
<!DOCTYPE svg PUBLIC "-//W3C//DTD SVG 1.1//EN" "http://www.w3.org/Graphics/SVG/1.1/DTD/svg11.dtd">
<svg xmlns="http://www.w3.org/2000/svg">
<defs >
<font id="Tangerine" horiz-adv-x="217" ><font-face
    font-family="Tangerine"
    units-per-em="1000"
    panose-1="2 0 0 0 0 0 0 0 0 0"
    ascent="750"
    descent="-250"
    alphabetic="0" />
<glyph unicode=" " glyph-name="space" horiz-adv-x="150" />
<glyph unicode="!" glyph-name="exclam" horiz-adv-x="189" d="M68 0Q55 0 55 22Q55 28 59 35T70 49T85 60T103 65Q113 65 113 51Q113 43 109 34T97 18T83 5T68 0ZM315 525Q295 486 270 431T218 319T169 213T133 132Q125 123 120 125T117 139Q132 172 151 220T189
318T223 416T248 495Q254 504 267 515T294 534T314 541T315 525Z" />
<glyph unicode="&quot;" glyph-name="quotedbl" horiz-adv-x="214" d="M123 396Q126 401 133 403T159 405Q173 405 169 395Q160 385 146 369T117 334T86 299T60 270Q55 268 52 270T51 278Q56 286 66 302T86 335T107 369T123 396ZM217 396Q220 401 227 403T253
405Q267 405 263 395Q254 385 240 369T211 334T180 299T154 270Q149 268 146 270T145 278Q150 286 160 302T180 335T201 369T217 396Z" />
<glyph unicode="#" glyph-name="numbersign" horiz-adv-x="289" d="M301 237Q308 235 301 226T284 214Q271 215 258 215T230 215Q219 196 210 178T192 140Q208 140 222 140T251 138Q254 137 254 134T250 127T243 120T234 115Q221 116 208 116T181 116Q169 89 159
63T138 11Q134 0 128 0Q122 0 124 7Q131 28 141 56T164 116Q144 116 126 116T89 114Q67 60 53 11Q49 0 43 0Q39 0 39 7Q44 27 53 54T73 113Q57 111 43 110T17 106Q13 107 14 111T19 120T29 129T40 134Q50 135 60 135T81 137Q89 156 96 175T112 213Q95 211 81 210T55
206Q51 206 52 210T58 219T67 228T78 233Q89 235 100 235T123 237Q130 251 136 263T149 287Q153 294 160 302T173 315T184 321T188 313Q176 294 166 275T145 238Q164 238 183 238T220 239Q227 252 233 263T247 285Q251 292 259 301T274 316T286 323T290 315Q277
296 266 278T243 239Q259 239 273 239T301 237ZM173 140Q189 177 208 216Q189 216 170 216T133 214Q123 194 115 176T98 138Q117 139 136 139T173 140Z" />
<glyph unicode="$" glyph-name="dollar" horiz-adv-x="269" d="M222 309Q239 304 249 297T259 283Q259 269 254 252T242 224Q239 222 235 223T232 230Q236 238 237 249T236 268Q231 284 214 292Q201 263 189 236T165 181Q182 163 197 144T213 93Q213 54 182 27T96
-1H89Q84 -16 78 -31T65 -63Q60 -72 54 -72T48 -65Q55 -48 61 -32T74 0Q45 4 28 16T10 41Q10 47 13 55T23 74T37 93T53 109Q57 111 60 108T61 100Q52 92 47 79T43 55Q49 24 81 16Q96 54 110 88T140 157Q125 174 113 190T100 231Q100 246 106 260T124 287T153 306T192
313Q196 313 199 313T206 312Q214 328 221 344T236 379Q241 386 247 385T252 375Q237 340 222 309ZM182 76Q182 99 173 115T150 146Q136 113 123 81T95 14H98Q140 14 161 32T182 76ZM155 192Q166 217 176 242T200 297H192Q162 297 147 283T131 247Q131 230 138
217T155 192Z" />
<glyph unicode="%" glyph-name="percent" horiz-adv-x="388" d="M115 285Q88 285 69 261T49 206Q49 180 57 166T85 151Q113 151 132 175T151 231Q151 257 143 271T115 285ZM67 123Q45 123 33 137T20 177Q20 201 29 225T54 268T90 300T133 313Q155 313 167 299T180
260Q180 236 171 212T146 168T110 136T67 123ZM303 162Q276 162 257 138T238 82Q238 56 246 42T274 28Q301 28 320 52T339 108Q339 134 331 148T303 162ZM256 0Q234 0 222 14T209 54Q209 78 218 102T243 145T279 177T321 190Q344 190 356 176T368 137Q368 113 359
89T334 45T298 13T256 0ZM364 367Q283 262 202 151T52 -64Q44 -72 37 -70T32 -59Q71 -4 107 48T181 152T258 258T344 374Q351 379 358 377T364 367Z" />
<glyph unicode="&amp;" glyph-name="ampersand" horiz-adv-x="507" d="M501 204Q503 199 499 197T490 199Q482 210 469 217T436 224Q412 224 393 211T357 178T322 132T286 83Q313 58 346 44T418 30Q452 30 473 56Q477 61 484 60T483 48Q467 26 444 13T388 0Q350
0 318 14T259 53Q236 30 206 15T137 0Q85 0 53 30T20 107Q20 137 32 159T64 198T108 229T158 259Q150 302 150 337Q150 365 158 390T181 434T215 464T255 475Q272 475 284 459T296 423Q296 394 287 371T263 329T229 295T188 266Q199 216 221 170T278 91Q298 116
316 145T355 199T397 240T449 256Q471 256 483 241T501 204ZM176 367Q176 322 185 276Q219 299 243 328T267 405Q267 424 259 437T233 450Q206 450 191 427T176 367ZM59 124Q59 79 88 53T169 27Q193 27 213 36T250 61Q215 97 193 146T160 248Q140 235 122 223T90
195T68 163T59 124Z" />
<glyph unicode="&apos;" glyph-name="quotesingle" horiz-adv-x="120" d="M123 396Q126 401 133 403T159 405Q173 405 169 395Q160 385 146 369T117 334T86 299T60 270Q55 268 52 270T51 278Q56 286 66 302T86 335T107 369T123 396Z" />
<glyph unicode="(" glyph-name="parenleft" horiz-adv-x="250" d="M315 637Q322 641 327 639T327 628Q307 609 284 579T242 517Q216 473 195 416T158 297T135 172T126 52Q126 36 127 17T130 -22T137 -60T146 -93Q147 -101 141 -103T130 -100Q116 -68 107 -24T96
70T97 177T116 289Q143 403 195 492T315 637Z" />
<glyph unicode=")" glyph-name="parenright" horiz-adv-x="276" d="M43 -102Q37 -106 32 -104T32 -93Q52 -73 75 -43T117 19Q143 63 164 119T201 238T224 363T233 483Q233 499 232 518T229 557T222 595T213 628Q212 637 218 639T229 635Q243 603 252 559T263 465T261
358T243 246Q216 132 164 43T43 -102Z" />
<glyph unicode="*" glyph-name="asterisk" horiz-adv-x="188" d="M199 335Q188 333 175 331T150 326Q136 323 122 321Q130 311 139 300Q147 291 154 282T169 266Q173 262 171 257T165 249T155 246T147 250Q142 258 136 269T125 291Q119 302 113 314Q104 301 96
289Q89 278 82 268T70 250Q67 245 62 245T53 247T46 253T46 259Q54 267 64 278T84 299Q95 310 105 322Q95 324 84 327Q75 329 65 331T47 335Q42 336 42 340T46 348T54 355T63 356Q69 352 77 349T93 341Q102 337 110 332Q113 345 116 357Q118 368 121 379T126 399Q127
405 133 409T145 414T155 415T157 409Q152 398 146 385T135 360Q129 346 122 333Q136 338 150 343Q162 348 175 352T199 361Q204 363 206 360T208 351T205 341T199 335Z" />
<glyph unicode="+" glyph-name="plus" horiz-adv-x="301" d="M269 155Q277 153 270 145T251 135H168Q160 112 153 91T139 50Q135 37 124 34T112 39Q120 64 127 88T143 135Q120 134 99 134T56 133Q49 135 54 144T84 156H150Q158 179 166 200T182 243Q183 247 187
250T197 255T206 256T210 251Q201 225 193 202T176 156Q199 156 223 156T269 155Z" />
<glyph unicode="," glyph-name="comma" horiz-adv-x="112" d="M75 66Q80 64 83 54T87 31Q87 0 64 -33T5 -88Q1 -88 0 -85T2 -77Q24 -63 38 -42T52 2Q52 23 42 29Q39 32 42 38T52 50T64 61T75 66Z" />
<glyph unicode="-" glyph-name="hyphen" horiz-adv-x="245" d="M59 160Q72 161 92 163T136 166T181 169T221 170Q225 169 224 165T220 157T210 148T197 143Q179 143 157 143T114 141T72 140T39 138Q32 140 39 148T59 160Z" />
<glyph unicode="." glyph-name="period" horiz-adv-x="112" d="M42 0Q30 0 30 22Q30 28 34 35T45 49T60 60T77 65Q87 65 87 50Q87 42 83 34T72 18T57 5T42 0Z" />
<glyph unicode="/" glyph-name="slash" horiz-adv-x="210" d="M379 625Q356 588 325 535T257 420T184 293T112 166T48 52T-1 -37Q-8 -45 -17 -44T-24 -33Q-2 6 28 58T91 169T161 291T232 415T300 531T359 630Q365 635 373 634T379 625Z" />
<glyph unicode="0" glyph-name="zero" horiz-adv-x="349" d="M216 283Q187 283 164 271T123 239T97 191T88 135Q88 88 109 60T175 31Q199 31 222 42T262 73T290 120T301 181Q301 228 281 255T216 283ZM148 0Q103 0 79 29T55 104Q55 136 68 173T107 241T166 292T242
313Q287 313 310 284T334 210Q334 169 318 132T276 65T217 18T148 0Z" />
<glyph unicode="1" glyph-name="one" horiz-adv-x="189" d="M51 -7Q40 -7 40 2Q52 34 66 68T96 136T126 202T154 262Q131 256 110 251T72 246Q68 247 69 252T76 259Q114 264 151 281T221 327Q226 329 230 327T233 320Q208 287 186 248T146 168T114 87T91 12Q84
3 73 -2T51 -7Z" />
<glyph unicode="2" glyph-name="two" horiz-adv-x="277" d="M201 313Q235 313 253 293T271 245Q271 215 259 191T222 145T163 101T83 51Q104 44 132 39T194 33Q233 33 247 58Q251 62 254 59T256 48Q242 25 222 13T172 0Q144 0 123 5T86 16T56 22T29 16Q20 11 15
7T4 0Q-1 0 -1 6T4 18Q47 47 88 70T161 117T212 167T231 229Q231 255 215 269T172 283Q140 283 119 261T90 207Q87 204 83 207T78 215Q82 233 92 250T118 282T155 304T201 313Z" />
<glyph unicode="3" glyph-name="three" horiz-adv-x="253" d="M182 313Q219 313 238 293T258 248Q258 200 224 172T123 117Q144 123 163 119T198 102T221 70T230 30Q230 -9 211 -44T161 -105T89 -146T5 -162Q-27 -162 -41 -145T-57 -94Q-55 -91 -51 -90T-45 -92Q-30
-138 37 -138Q68 -138 95 -128T143 -101T176 -59T188 -7Q188 47 166 73T101 100Q77 100 58 87Q53 87 51 91T52 101Q98 120 129 134T180 162T208 191T217 229Q217 255 202 272T158 290Q132 290 115 279T87 248Q84 245 79 248T76 256Q88 279 114 296T182 313Z" />
<glyph unicode="4" glyph-name="four" horiz-adv-x="363" d="M452 503Q457 504 460 502T462 494Q431 467 409 438T367 374Q341 328 317 274T272 160Q277 159 282 159T292 159Q327 159 349 169T383 200Q385 202 388 200T390 192Q372 160 345 145T270 129H261Q253
103 245 76T229 20Q225 11 212 3T188 -6Q178 -6 177 0Q188 32 199 65T223 131Q189 134 162 139T115 148T81 153T58 148Q56 146 54 145T50 141Q46 139 42 141T40 148Q83 201 134 251T239 346T347 431T452 503ZM235 161Q264 233 295 300T359 422Q319 395 284 367T216
310T152 249T90 183Q119 175 156 169T235 161Z" />
<glyph unicode="5" glyph-name="five" horiz-adv-x="250" d="M125 159Q165 139 186 107T208 33Q208 -3 191 -37T144 -97T76 -138T-5 -154Q-37 -154 -52 -138T-70 -95Q-69 -90 -65 -89T-58 -91Q-47 -111 -28 -119T28 -128Q59 -128 84 -118T129 -89T158 -46T169
8Q169 46 150 76T91 123Q68 131 78 168Q87 201 101 237T131 304Q135 309 146 309Q166 310 189 310T236 313Q282 315 289 332Q291 336 295 334T299 327Q294 310 290 301T280 286T263 278T236 275Q228 275 217 275T194 273T171 272T152 271Q140 270 135 267T126 258Q119
243 115 231T106 204Q102 187 106 177T125 159Z" />
<glyph unicode="6" glyph-name="six" horiz-adv-x="296" d="M376 500Q403 500 419 480T437 429Q435 425 432 425T427 426Q415 446 396 457T345 468Q306 468 272 451T208 403T154 329T111 232Q129 258 157 275T220 292Q252 292 271 266T291 201Q291 165 276 129T235
65T180 18T119 0Q84 0 67 27T50 108Q50 145 62 188T96 275T148 359T215 431T292 481T376 500ZM189 259Q170 259 152 249T120 221T97 179T88 126Q88 73 104 52T152 31Q168 31 185 40T217 68T241 114T250 179Q250 214 236 236T189 259Z" />
<glyph unicode="7" glyph-name="seven" horiz-adv-x="326" d="M195 313Q229 313 261 309T329 297Q343 295 354 306Q363 316 365 321Q369 323 372 320T373 309Q325 225 281 166T196 57T118 -38T49 -139Q42 -146 26 -154T-1 -162Q-5 -162 -8 -160T-9 -152Q18 -113
43 -82T95 -22T147 35T202 95T261 167T325 258Q308 260 294 262T264 265T231 266T190 267Q163 267 145 264T114 250T92 223T75 179Q72 174 68 177T64 186Q72 212 84 242T107 292Q112 297 118 301T135 307T159 311T195 313Z" />
<glyph unicode="8" glyph-name="eight" horiz-adv-x="305" d="M355 401Q355 319 250 272Q271 249 288 222T306 154Q306 124 293 96T257 47T204 13T141 0Q93 0 67 29T40 98Q40 152 75 193T196 265Q177 287 163 310T148 368Q148 387 157 406T182 440T222 466T273
476Q310 476 332 454T355 401ZM173 28Q213 28 240 55T268 123Q268 147 263 165T249 199T229 228T206 254Q135 228 108 196T81 118Q81 77 104 53T173 28ZM240 282Q284 304 302 328T320 381Q320 415 301 433T249 452Q220 452 203 435T185 391Q185 354 201 330T240
282Z" />
<glyph unicode="9" glyph-name="nine" horiz-adv-x="304" d="M17 -151Q-9 -151 -25 -138T-44 -103Q-43 -100 -40 -98T-34 -98Q-24 -111 -8 -117T34 -124Q105 -124 153 -76T234 88Q214 58 188 40T125 21Q85 21 65 46T45 108Q45 142 57 178T92 244T146 293T214 313Q251
313 274 288T298 225Q298 152 274 85T211 -35T122 -119T17 -151ZM152 51Q172 51 191 64T224 98T247 145T256 200Q256 237 240 261T185 285Q140 285 113 242T85 129Q85 91 101 71T152 51Z" />
<glyph unicode=":" glyph-name="colon" horiz-adv-x="156" d="M33 0Q20 0 20 21Q20 27 24 34T35 49T50 60T67 65Q72 65 74 61T77 50Q77 42 73 34T62 18T48 5T33 0ZM94 191Q81 191 81 213Q81 219 85 226T96 240T111 251T129 256Q139 256 139 242Q139 234 135 225T123
209T109 196T94 191Z" />
<glyph unicode=";" glyph-name="semicolon" horiz-adv-x="156" d="M95 191Q82 191 82 213Q82 219 86 226T97 240T112 251T129 256Q139 256 139 242Q139 234 135 226T124 209T110 196T95 191ZM69 68Q74 66 77 56T81 33Q81 2 58 -31T-1 -86Q-5 -86 -6 -83T-4 -75Q18
-61 32 -40T46 4Q46 25 36 31Q33 34 36 40T46 52T58 63T69 68Z" />
<glyph unicode="&lt;" glyph-name="less" horiz-adv-x="301" d="M56 133Q51 135 55 141T74 153Q89 158 117 167T176 186T239 206T294 223Q300 221 295 212T276 198Q265 195 244 188T198 173T146 157T100 141Q129 127 169 110T244 75Q249 71 242 64T221 59Q207
65 186 75T141 95T95 116T56 133Z" />
<glyph unicode="=" glyph-name="equal" horiz-adv-x="301" d="M97 192Q112 192 134 192T180 193T231 193T282 191Q290 190 283 182T264 172Q219 172 168 172T69 170Q62 172 67 180T97 192ZM72 119Q87 119 109 119T155 120T206 120T257 118Q265 117 258 109T239
98Q194 99 143 99T44 96Q37 98 42 107T72 119Z" />
<glyph unicode="&gt;" glyph-name="greater" horiz-adv-x="301" d="M269 155Q274 153 270 147T251 135Q236 130 208 121T149 102T86 82T31 65Q25 67 30 76T49 90Q59 93 80 99T127 114T179 131T225 147Q196 161 156 178T81 213Q76 217 83 224T104 229Q118 223 139
213T184 193T230 172T269 155Z" />
<glyph unicode="?" glyph-name="question" horiz-adv-x="285" d="M68 0Q55 0 55 21Q55 27 59 34T70 49T85 60T103 65Q108 65 110 61T113 50Q113 42 109 34T97 18T83 5T68 0ZM294 519Q337 519 361 492T385 429Q385 387 371 359T334 310T284 275T232 247T185 220T154
185Q146 170 150 156T175 140Q182 140 179 136T169 126T151 118T134 116Q125 118 119 126T112 145T116 170T134 197Q161 226 197 246T267 287T324 334T347 403Q347 439 326 461T267 484Q230 484 207 464T176 414Q172 409 166 414T161 424Q168 443 181 460T212 490T251
511T294 519Z" />
<glyph unicode="@" glyph-name="at" horiz-adv-x="492" d="M324 65Q371 65 401 101T431 198Q431 229 420 256T390 303T343 335T281 347Q234 347 197 331T134 287T93 219T79 134Q79 96 91 63T125 5T181 -34T259 -49Q315 -49 351 -27T408 31Q411 33 414 30T416 22Q390
-23 343 -49T233 -76Q190 -76 156 -61T99 -20T63 40T50 113Q50 162 67 207T117 288T196 343T300 364Q333 364 360 352T408 320T440 272T452 213Q452 177 440 145T406 90T357 54T299 40Q278 40 273 69T282 137Q259 103 236 78T189 48Q175 48 165 62T154 107Q154
133 165 159T194 207T237 241T288 255Q315 255 332 241Q337 245 345 249T361 253Q364 253 364 249Q342 222 328 190T308 131T306 84T324 65ZM208 80Q217 80 230 92T258 125T287 169T313 217Q305 239 273 239Q256 239 241 231T213 206T194 169T187 120Q187 103 193
92T208 80Z" />
<glyph unicode="A" glyph-name="A" horiz-adv-x="996" d="M1004 585Q1006 583 1006 580T1001 570Q968 534 942 488T898 386T869 270T859 145Q859 97 871 71T912 44Q951 44 988 100Q991 102 994 100T995 94Q985 77 972 61T943 31T914 9T887 0Q854 0 837 33T819
119Q819 199 837 282Q790 282 745 281T655 278Q622 243 592 212T532 155Q452 82 368 41T182 0Q131 0 100 24T57 86T54 167T97 251Q100 253 104 251T107 241Q83 215 79 181T89 116T140 64T234 43Q310 43 387 79T534 180Q556 200 579 224T629 277Q560 272 505 265Q500
266 503 270T512 278T527 286T544 291Q556 292 583 292T646 294Q703 354 773 423T937 565Q870 587 799 601T661 616Q586 616 537 573T475 440Q473 435 470 436T465 442Q477 540 538 592T696 644Q737 644 779 639T861 625T937 606T1004 585ZM840 295Q857 368 887
437T959 564Q871 493 801 425T671 294Q719 295 766 295T840 295Z" />
<glyph unicode="B" glyph-name="B" horiz-adv-x="638" d="M519 364Q576 338 602 292T628 197Q628 106 564 53T371 0Q268 0 185 34T31 127Q28 131 33 135T45 143T62 148T77 147Q96 127 115 122T162 121Q188 126 208 141T247 187T284 268T324 394Q345 468 374 524T446
618Q437 620 428 620T408 620Q375 620 343 611T281 583T229 539T191 480Q189 478 187 479T185 485Q197 516 221 545T280 596T356 631T448 644Q456 644 463 644T479 643Q515 668 565 680Q570 680 570 677T565 672Q548 667 531 660T499 641Q539 635 568 622T617 589T645
547T654 500Q654 470 643 445T612 402T569 374T519 364ZM394 15Q439 15 474 27T534 61T571 112T584 175Q584 320 433 360Q430 363 434 368T445 377T461 383T476 384Q485 380 492 379T512 377Q530 377 547 384T578 406T600 438T609 480Q609 528 575 565T468 616Q435
582 409 532T365 412Q339 317 312 258T255 164T195 117T132 103Q183 65 251 40T394 15Z" />
<glyph unicode="C" glyph-name="C" horiz-adv-x="557" d="M466 644Q502 644 532 641T583 630T617 614T630 592Q630 584 627 573T618 549T607 525T594 505Q591 503 588 505T586 512Q607 549 595 569Q581 592 539 608T442 625Q370 625 311 600T210 528T144 417T120
276Q120 220 135 173T179 91T250 37T346 17Q418 17 466 61T534 180Q536 185 540 184T545 178Q541 157 533 132T516 84T499 45T484 26Q452 14 413 7T330 0Q269 0 221 18T139 70T87 148T69 245Q69 325 98 397T179 524T305 611T466 644Z" />
<glyph unicode="D" glyph-name="D" horiz-adv-x="799" d="M583 591Q632 562 671 522T737 436T779 345T794 256Q794 200 776 154T723 73T637 19T521 0Q483 0 450 5T388 17T331 34T277 52Q238 25 192 13T88 0Q56 0 43 7T30 28Q30 41 39 55T64 82T103 101T155 109Q193
109 226 102T290 85Q327 124 359 193T427 373Q448 437 473 487T530 572Q491 592 447 604T355 616Q316 616 284 604T226 569T185 515T163 446Q157 440 155 450Q159 492 177 527T225 589T298 629T394 644Q440 644 482 633T562 602Q616 646 690 661Q693 661 693 658T691
652Q659 644 633 629T583 591ZM122 18Q164 18 197 26T260 57Q227 67 192 74T115 81Q88 81 75 72T60 50Q58 36 71 27T122 18ZM566 27Q661 27 708 80T756 224Q756 271 742 318T702 410T638 493T555 559Q529 527 509 486T472 393Q435 278 397 202T309 78Q334 69 361
60T418 44T485 32T566 27Z" />
<glyph unicode="E" glyph-name="E" horiz-adv-x="494" d="M269 523Q269 488 292 464T373 422Q376 420 374 416T366 406T355 397T344 392Q232 397 170 344T108 182Q108 147 118 117T148 65T195 31T258 18Q340 18 392 56T467 179Q470 184 473 182T478 174Q466 118
450 81T419 38Q384 22 335 11T234 0Q192 0 160 13T105 48T72 98T60 158Q60 206 77 248T126 324T201 380T297 412Q265 429 247 452T229 502Q229 530 243 555T283 600T343 632T419 644Q443 644 466 640T507 628T535 611T546 591Q546 583 543 573T535 551T525 531T516
517Q514 515 511 516T508 522Q514 533 517 546T512 573Q501 591 470 609T399 627Q366 627 342 618T302 594T277 561T269 523Z" />
<glyph unicode="F" glyph-name="F" horiz-adv-x="626" d="M833 609Q837 606 835 601T826 590T812 581T797 577Q773 579 749 582T700 590Q680 584 665 573T636 542T611 492T587 418Q580 395 574 373T560 330Q585 331 610 331T663 331Q668 329 667 326T657 321Q631
321 606 321T556 319Q497 154 408 77T194 0Q122 0 86 36T50 133Q50 162 65 191T110 240Q115 240 116 236T116 229Q98 215 90 199T81 154Q81 128 90 106T118 68T167 42T239 33Q289 33 329 47T402 95T464 183T519 317Q469 315 422 311T326 300Q323 301 327 304T338
311T354 318T368 323Q409 326 447 327T523 330Q528 346 533 363T543 398Q555 441 567 473T596 529T631 567T677 593Q623 601 573 607T478 614Q403 614 352 582T278 481Q275 479 272 480T269 487Q291 558 355 601T515 644Q552 644 589 640T666 631T746 619T833 609Z"
/>
<glyph unicode="G" glyph-name="G" horiz-adv-x="571" d="M573 611Q504 611 445 583T342 505T274 387T249 239Q249 171 273 136T349 101Q407 101 450 133T510 226Q511 232 519 236T535 241T551 242T558 236Q525 120 481 40T384 -91T271 -163T145 -186Q99 -186
65 -174T9 -141T-25 -93T-37 -34Q-37 9 -18 43T49 100Q54 102 55 98T54 89Q5 62 5 -10Q5 -80 47 -124T167 -168Q275 -168 355 -95T486 143Q455 117 416 100T328 82Q264 82 232 118T200 216Q200 286 231 361T316 499T444 602T601 643Q645 643 670 624T696 578Q696
567 691 552T678 522T661 492T645 466Q641 464 638 466T635 473Q649 495 655 512T662 549Q662 576 638 593T573 611Z" />
<glyph unicode="H" glyph-name="H" horiz-adv-x="865" d="M1109 681Q1130 681 1141 668T1152 636Q1152 622 1149 609T1139 585Q1137 583 1135 584T1132 589Q1139 612 1128 628T1088 644Q1044 644 1004 625T926 558T852 433T781 237Q794 233 806 230T831 223Q836
219 822 212T787 206Q783 207 773 211Q770 199 767 187T759 161Q728 44 772 44Q811 44 848 100Q851 103 854 101T856 94Q845 77 832 61T803 31T774 9T747 0Q717 0 706 30T711 127Q723 178 738 222Q679 240 612 254T473 274Q445 201 410 149T335 64T249 16T154 0Q102
0 76 25T50 92Q50 131 73 167T141 230T250 274T398 291Q409 291 420 291T442 290Q447 304 451 318T460 349Q476 408 491 449T522 519T554 564T590 591Q564 601 529 608T451 615Q404 615 371 601T318 563T292 508T292 443Q291 438 288 437T282 440Q273 482 282 519T317
585T385 629T487 645Q528 645 567 636T637 613Q641 607 637 602T618 591Q598 583 584 569T557 531T534 472T510 387Q502 361 495 336T479 288Q545 283 614 272T746 246Q780 349 823 429T914 566T1011 651T1109 681ZM181 24Q225 24 262 36T330 78T387 156T438 276Q423
278 409 278T379 278Q308 278 252 265T158 228T100 175T80 112Q80 69 106 47T181 24Z" />
<glyph unicode="I" glyph-name="I" horiz-adv-x="554" d="M738 645Q741 643 740 639T735 630T726 620T717 613Q697 607 681 597T650 566T621 509T592 414Q556 277 494 182Q508 184 520 189T540 198Q543 199 544 197T543 191Q522 177 488 172Q430 88 353 44T181
0Q121 0 86 27T50 93Q50 124 76 155T146 206Q151 205 151 202T150 197Q119 180 104 158T89 113Q89 79 120 54T214 29Q293 29 354 61T463 171Q412 174 385 210T358 303Q358 365 388 426T469 536T590 615T738 645ZM549 392Q560 434 572 467T599 527T632 572T674 606Q605
598 549 568T454 495T393 404T371 307Q371 247 397 216T469 181Q492 221 512 273T549 392Z" />
<glyph unicode="J" glyph-name="J" horiz-adv-x="634" d="M822 644Q825 642 824 638T819 629T810 619T801 612Q780 606 763 594T730 559T702 501T675 413Q658 347 638 290T595 182Q607 184 618 188T635 197Q642 197 639 190Q621 177 591 172Q548 80 496 13T386
-98T265 -163T135 -185Q66 -185 33 -153T0 -72Q0 -34 21 7T78 84T165 147T276 185Q281 185 281 181T276 175Q223 165 179 143T103 90T53 25T35 -46Q35 -96 65 -126T169 -157Q228 -157 282 -139T386 -82T478 19T560 169Q507 171 475 206T442 302Q442 364 472 425T553
535T674 614T822 644ZM633 391Q655 478 686 530T758 606Q689 597 633 567T538 495T477 403T455 306Q455 248 484 215T564 179Q601 270 633 391Z" />
<glyph unicode="K" glyph-name="K" horiz-adv-x="936" d="M551 347Q536 261 503 196T423 88T315 22T187 0Q116 0 83 31T50 108Q50 128 56 148T72 187T98 219T132 242Q138 242 139 239T139 232Q113 218 99 193T85 136Q85 88 118 58T213 27Q274 27 321 42T405 92T465
180T504 313Q517 385 530 433T559 512T591 561T628 589Q602 599 567 605T491 612Q429 612 382 591T306 532T266 445T268 336Q268 331 264 329T257 332Q243 394 255 450T301 550T393 618T527 644Q569 644 608 635T678 612Q682 606 678 602T658 590Q637 581 622 565T594
521T572 451T551 347ZM615 368Q637 290 659 228T707 122T766 55T842 32Q864 32 882 43T912 73Q915 76 918 73T920 65Q905 37 879 19T813 0Q767 0 732 27T670 102T623 211T585 341Q582 351 589 361Q634 419 682 471T779 561T872 621T955 644Q972 644 984 631T996
597Q996 583 994 572T984 544Q981 541 978 542T974 547Q979 571 968 588T923 606Q895 606 858 589T780 540T697 464T615 368Z" />
<glyph unicode="L" glyph-name="L" horiz-adv-x="657" d="M660 644Q692 644 708 623T725 571Q725 551 718 529T702 489Q698 486 695 487T692 494Q699 512 699 531T692 565T668 591T626 601Q590 601 560 588T505 540T456 448T410 299Q391 227 366 173T308 82Q351
65 398 52T505 39Q552 39 582 55T636 118Q640 120 643 118T644 110Q620 56 580 28T473 0Q414 0 368 17T279 54Q212 0 107 0Q69 0 50 15T30 49Q30 62 37 75T59 99T94 117T139 124Q178 124 214 113T289 88Q334 146 368 274Q390 356 419 424T485 541T566 617T660 644ZM139
21Q177 21 207 30T263 61Q228 78 192 90T111 102Q83 102 71 93T59 70Q59 50 80 36T139 21Z" />
<glyph unicode="M" glyph-name="M" horiz-adv-x="1219" d="M1286 656Q1291 656 1293 651T1292 642Q1244 600 1206 542T1139 418T1096 286T1081 159Q1081 105 1094 75T1130 44Q1168 44 1205 100Q1208 103 1211 101T1214 94Q1203 77 1190 61T1161 31T1132 9T1105
0Q1079 0 1059 30T1039 124Q1039 176 1049 236T1081 356T1133 474T1206 578Q1144 532 1080 468T956 330T845 179T760 29Q756 22 745 11T728 0Q721 0 721 7Q740 162 775 282T860 505Q780 385 703 291T549 133T392 34T226 0Q185 0 153 13T98 49T63 103T51 171Q51
219 73 259T140 322Q144 324 145 320T145 312Q114 292 102 266T89 198Q89 165 100 136T132 84T185 49T259 36Q347 36 427 76T584 188T733 354T879 559Q809 583 733 599T586 616Q511 616 461 573T400 440Q398 435 395 436T390 442Q401 540 462 592T621 644Q662 644
704 639T786 625T862 606T929 585Q931 586 933 586T938 587Q942 587 942 583T941 576Q927 567 918 554T898 520Q848 420 819 311T769 89Q816 172 877 255T1006 413T1146 550T1286 656Z" />
<glyph unicode="N" glyph-name="N" horiz-adv-x="990" d="M1216 644Q1244 644 1260 623T1277 548Q1276 542 1272 542T1265 547Q1263 565 1252 578T1225 596T1190 600T1151 583Q1102 548 1061 484T989 343T940 180T919 18Q919 7 917 4T910 0Q906 0 904 4T899 15Q854
186 791 316T647 522Q625 398 584 301T488 137T368 35T234 0Q163 0 119 30T59 105T56 200T112 290Q117 291 119 288T120 279Q91 250 83 210T91 132T148 69T259 43Q328 43 388 76T495 173T576 329T627 540Q585 575 540 593T446 611Q398 611 367 589T321 540Q318
538 315 539T310 545Q319 564 334 582T370 613T416 635T472 644Q514 644 554 629T633 584V586Q634 592 638 600T646 614T655 623T660 621Q659 607 658 594T654 567Q697 529 736 478T808 367T867 241T914 106Q921 166 937 229T976 352T1027 465T1087 558T1151 621T1216
644Z" />
<glyph unicode="O" glyph-name="O" horiz-adv-x="606" d="M446 645Q493 645 531 627T595 577T636 502T651 406Q651 324 620 251T537 122T420 33T285 0Q232 0 192 19T125 70T84 144T70 232Q70 308 99 382T179 515T298 609T446 645ZM328 31Q380 31 430 56T521 126T586
235T611 376Q611 486 559 548T414 611Q347 611 292 584T196 510T134 400T112 265Q112 213 126 170T168 96T236 48T328 31Z" />
<glyph unicode="P" glyph-name="P" horiz-adv-x="783" d="M691 641Q735 635 769 617T826 571T861 512T873 444Q873 398 857 359T810 290T735 243T633 226Q566 226 526 259Q466 124 384 62T203 0Q165 0 137 12T89 45T60 91T50 146Q50 165 55 184T70 221T94 253T125
276Q135 278 131 269Q102 253 88 226T73 168Q73 139 83 114T114 70T163 41T230 30Q276 30 314 42T385 83T446 162T500 287Q489 303 481 322T468 364Q469 368 472 369T477 368Q486 329 505 303Q515 334 526 372Q549 457 576 518T642 619Q636 620 630 620T616 620Q510
620 437 569T334 418Q331 415 328 417T325 428Q359 528 438 586T647 644Q653 644 658 644T669 643Q703 669 748 680Q753 680 753 677T749 672Q732 667 718 660T691 641ZM643 246Q685 246 719 260T778 298T816 356T829 427Q829 462 819 493T788 549T737 591T667
616Q640 583 619 534T581 420Q560 340 533 275Q573 246 643 246Z" />
<glyph unicode="Q" glyph-name="Q" horiz-adv-x="563" d="M407 644Q456 644 494 629T558 585T597 517T611 430Q611 352 578 282T488 158T359 67T204 21Q230 12 261 -2T325 -33T395 -67T468 -98Q506 -113 537 -120T607 -127Q658 -127 691 -114T749 -74Q752 -72
756 -73T758 -80Q731 -118 689 -142T586 -167Q565 -167 548 -165T513 -159T477 -148T438 -131Q388 -109 336 -82T236 -32T143 7T66 22Q61 24 60 29T70 41Q89 52 107 52Q119 52 137 44T169 36Q246 36 317 63T443 139T531 257T564 409Q564 455 553 494T520 562T467
607T393 623Q337 623 291 600T210 534T158 434T139 304Q139 250 162 211T233 164Q268 158 282 172Q286 173 288 170T289 163Q280 152 261 145T219 137Q192 137 171 149T135 181T112 229T104 289Q104 357 127 421T191 534T287 614T407 644Z" />
<glyph unicode="R" glyph-name="R" horiz-adv-x="854" d="M853 75Q855 78 859 78T863 72Q841 39 813 20T753 0Q709 0 678 25T625 92T587 191T559 308Q559 314 563 317Q568 319 574 321T591 329Q594 330 599 329T614 326T635 324T665 328Q717 340 746 376T775 466Q775
530 737 572T632 619Q604 587 583 537T543 419Q514 309 475 230T387 99T283 24T165 0Q135 0 114 9T78 34T56 70T49 114Q49 152 69 189T124 244Q133 246 131 236Q101 221 87 194T72 136Q72 84 103 57T192 30Q244 30 286 45T364 99T429 204T487 371Q511 457 539 518T605
620Q417 616 319 477Q316 475 313 477T311 484Q359 554 439 596T632 643Q649 656 668 665T710 680Q715 680 715 677T710 671Q681 663 657 644Q692 644 721 631T771 595T803 546T815 488Q815 448 797 414T750 356T682 320T602 309Q618 223 637 169T679 85T728 43T785
32Q806 32 821 42T853 75Z" />
<glyph unicode="S" glyph-name="S" horiz-adv-x="480" d="M50 121Q50 155 67 183T118 229Q122 231 123 227T123 219Q87 199 87 147Q87 121 98 99T129 60T179 33T247 23Q338 23 381 62T425 158Q425 196 414 227T387 285T351 338T316 388T288 440T277 499Q277 529
289 555T321 601T368 632T428 644Q473 644 499 621T525 569Q525 552 514 532T492 497Q488 495 486 497T483 505Q496 521 496 549Q496 578 471 598T403 619Q360 619 334 595T307 533Q307 503 318 477T347 424T383 371T420 316T448 256T460 187Q460 146 442 112T393
52T320 14T231 0Q143 0 97 34T50 121Z" />
<glyph unicode="T" glyph-name="T" horiz-adv-x="577" d="M809 587Q815 581 808 572Q792 549 784 552Q772 556 760 559T735 566Q679 561 635 508T556 339Q504 170 412 86T188 1Q152 1 126 10T83 35T58 71T50 113Q50 173 109 213Q113 213 114 209T113 202Q99 191
93 179T86 143Q86 92 121 63T227 33Q275 33 315 46T388 90T450 175T505 308Q541 420 591 488T704 574Q637 591 565 601T422 611Q366 611 323 593T250 543T208 471T201 384Q195 375 190 383Q184 432 197 479T244 563T330 622T455 644Q562 644 649 627T809 587Z"
/>
<glyph unicode="U" glyph-name="U" horiz-adv-x="752" d="M441 586Q415 596 376 604T296 612Q235 612 191 586T121 517T87 421T89 316Q88 312 84 310T78 312Q64 375 76 434T121 540T207 615T332 644Q374 644 413 635T483 612Q489 607 480 600Q427 558 387 506T318
395T275 275T260 153Q260 87 283 61T344 35Q396 35 446 70T548 177T659 360T786 622Q790 630 803 637T830 644Q846 644 846 637Q828 616 806 578T763 491T721 387T684 280T659 181T649 101Q649 44 686 44Q724 44 760 100Q763 103 767 101T770 94Q759 77 746 61T717
31T688 9T661 0Q633 0 621 23T608 78Q608 128 623 197T670 346Q579 175 490 88T313 0Q265 0 241 32T216 125Q216 186 231 248T276 369T346 484T441 586Z" />
<glyph unicode="V" glyph-name="V" horiz-adv-x="661" d="M751 526Q751 449 718 384T631 257T508 133T367 -1Q360 -1 359 2T358 12T363 25T369 39Q391 92 405 155T422 282T420 405T394 511T342 584T263 612Q195 612 152 555T80 387Q78 383 74 384T70 389Q99 514
152 579T280 644Q326 644 359 621T414 558T446 464T456 346T446 213T416 73Q486 131 542 182T636 282T694 383T715 492Q715 542 692 571T634 602Q606 603 586 562Q583 560 580 562T577 569Q582 583 591 596T611 620T633 637T652 644Q673 644 691 635T722 610T743
573T751 526Z" />
<glyph unicode="W" glyph-name="W" horiz-adv-x="822" d="M577 35Q581 93 576 158T565 285T560 397T576 477Q539 424 509 378T452 285T400 185T346 68Q331 33 327 17T313 0Q305 0 303 7T308 35Q359 169 375 276T381 458T333 573T242 613Q205 613 176 598T126 556T94
492T83 412Q81 406 77 405T72 409Q70 457 84 500T124 577T189 629T275 649Q316 649 344 628T388 570T409 482T409 372T390 248T353 118Q380 180 416 248T494 382T579 503T665 597Q668 598 670 595T674 587T675 577T671 568Q657 559 648 551T627 528Q610 506 604
472T597 398T600 313T609 224T615 137T613 60Q651 117 700 169T793 277T867 393T897 529Q897 561 888 582T862 605Q850 606 841 594T825 566Q815 562 815 573Q826 601 844 622T879 644Q903 644 917 620T932 562Q932 502 916 453T874 360T813 276T744 197T674 116T611
27Q603 15 597 8T582 0Q577 0 576 3T574 11T575 22T577 35Z" />
<glyph unicode="X" glyph-name="X" horiz-adv-x="813" d="M814 645Q828 645 837 632T846 590Q846 567 838 539T819 491Q815 489 811 491T808 498Q818 522 818 544Q818 570 807 583T768 597Q733 597 697 578T625 524T557 442T499 340Q529 202 584 123T715 43Q741
43 762 59T800 115Q803 119 806 117T810 107Q784 47 757 24T695 1Q651 1 616 25T552 91T504 187T471 301V302Q393 152 308 77T141 1Q99 1 75 18T50 58Q50 66 54 80T65 112T83 149T106 186Q109 189 114 187T117 178Q101 155 96 134T93 92Q96 69 114 56T168 43Q212
43 252 63T329 121T401 209T467 323Q454 386 447 437T432 523T416 578T389 597Q369 597 350 574T311 514Q306 509 302 511T299 520Q310 544 325 566T355 606T386 634T413 645Q435 645 447 620T466 555T478 465T494 364Q522 425 558 477T637 566T724 624T814 645Z"
/>
<glyph unicode="Y" glyph-name="Y" horiz-adv-x="662" d="M427 644Q445 644 455 635T469 605T466 551T444 468Q424 407 408 358T384 258Q378 215 390 193T441 171Q528 171 622 286T829 628Q848 644 863 644Q874 644 871 630Q768 411 681 265T513 32T352 -92T183
-128Q141 -128 108 -114T53 -76T19 -21T7 46Q7 84 20 120T60 184T126 233T219 259Q224 258 224 254T218 245Q172 239 140 224T86 185T56 133T46 71Q46 -5 90 -49T221 -94Q285 -94 343 -72T457 2T569 139T688 351Q660 305 626 266T555 197T484 151T418 134Q373 134
355 160T343 232Q351 287 367 342T400 448Q416 498 423 530T429 581T421 607T401 614Q389 614 376 608T351 593T329 573T312 551Q308 547 305 550T302 559Q309 570 322 585T352 613T389 635T427 644Z" />
<glyph unicode="Z" glyph-name="Z" horiz-adv-x="625" d="M435 644Q485 644 527 634T620 608Q645 600 657 601T683 614Q690 619 707 619Q716 619 714 611Q651 553 580 487T434 351T287 211T145 77Q169 79 194 73T250 58T322 43T419 35Q489 35 533 65T608 167Q612
169 617 167T620 159Q600 117 578 86T529 33T466 2T385 -8Q349 -8 321 -5T267 5T220 18T172 33Q141 42 120 36T70 0Q64 -2 56 3T51 14Q136 94 209 163T351 297T490 429T638 569Q586 583 530 593T414 603Q346 603 313 566T269 467Q266 463 262 464T257 471Q264 509
276 541T310 596T361 631T435 644Z" />
<glyph unicode="[" glyph-name="bracketleft" horiz-adv-x="318" d="M249 612Q251 619 253 621T265 623Q288 623 306 623T341 623T377 623T421 621Q431 619 426 612T409 604Q385 606 353 606T292 606Q243 420 201 245T131 -79Q148 -79 160 -79T183 -80T207 -80T238
-79Q245 -82 243 -88T224 -96Q202 -96 189 -96T163 -96T134 -95T91 -94Q79 -94 79 -84Q101 3 124 92T169 271T211 446T249 612Z" />
<glyph unicode="\" glyph-name="backslash" horiz-adv-x="212" d="M49 630Q59 565 75 478T110 299T145 122T176 -24Q177 -35 169 -40T156 -37Q143 29 127 112T93 283T60 458T30 621Q32 629 39 633T49 630Z" />
<glyph unicode="]" glyph-name="bracketright" horiz-adv-x="339" d="M194 -86Q193 -92 190 -94T178 -96Q155 -96 137 -96T102 -96T66 -96T22 -95Q12 -93 17 -86T35 -77Q58 -79 90 -79T151 -79Q200 107 242 281T312 605Q295 606 283 606T259 607T236 607T205 606Q198
608 200 614T219 623Q241 623 254 623T280 622T309 622T352 620Q364 620 364 611Q341 524 319 435T274 256T232 81T194 -86Z" />
<glyph unicode="^" glyph-name="asciicircum" horiz-adv-x="272" d="M181 361Q190 373 197 359Q210 319 223 280T251 205Q252 200 250 194T244 184T234 177T226 178Q214 212 201 250T177 321Q163 304 148 285T117 246T87 209T60 177Q56 175 53 178T51 188Q74 219
108 263T181 361Z" />
<glyph unicode="_" glyph-name="underscore" horiz-adv-x="356" d="M28 -29Q45 -28 81 -27T160 -26T244 -25T311 -25Q316 -27 315 -33T306 -40Q280 -40 242 -40T160 -42T71 -47T-11 -54Q-16 -53 -14 -49T-5 -41T11 -34T28 -29Z" />
<glyph unicode="`" glyph-name="grave" horiz-adv-x="155" d="M134 325Q136 323 134 320T126 316Q101 324 72 337T23 363Q17 365 23 371Q32 379 46 383T63 385Q77 371 96 355T134 325Z" />
<glyph unicode="a" glyph-name="a" horiz-adv-x="294" d="M270 63Q272 65 275 63T277 57Q256 28 236 14T201 0Q192 0 187 9T180 33T180 68T189 109Q162 67 132 37T74 0Q56 0 44 17T31 72Q31 105 44 137T81 196T134 239T197 255Q215 255 228 251T252 239Q258 244
268 248T288 253Q293 253 291 248Q268 220 252 186T226 120T215 64T218 30Q223 23 236 29T270 63ZM96 34Q107 34 124 49T161 90T198 146T231 210Q227 223 213 231T179 239Q157 239 138 228T103 196T79 147T70 85Q70 63 77 49T96 34Z" />
<glyph unicode="b" glyph-name="b" horiz-adv-x="247" d="M471 756Q503 756 517 731T524 673Q518 667 514 674Q512 694 497 708T449 723Q404 723 358 696T266 606T177 440T93 183Q102 196 113 208T139 231T168 248T198 255Q221 255 230 236T240 192Q240 160 224
126T184 63T130 17T76 -1Q58 -1 47 9T35 46Q35 68 42 104T61 183T90 275T127 370Q211 568 295 662T471 756ZM176 222Q161 222 144 213T112 184T87 136T73 69Q71 47 78 38T101 29Q120 29 139 41T173 74T197 119T207 169Q207 198 198 210T176 222Z" />
<glyph unicode="c" glyph-name="c" horiz-adv-x="203" d="M178 175Q173 175 173 180Q181 200 174 215T143 230Q127 230 113 219T89 187T73 139T67 79Q67 30 101 30Q140 30 179 77Q183 79 186 77T187 69Q164 40 136 20T81 -1Q59 -1 45 15T30 59Q30 94 41 129T71
192T114 237T163 255Q184 255 196 245T208 221Q208 216 205 209T198 195T188 183T178 175Z" />
<glyph unicode="d" glyph-name="d" horiz-adv-x="285" d="M602 756Q628 756 635 736T628 686Q620 680 618 689Q620 703 610 711T582 719Q546 719 509 694T437 625T369 520T308 390T258 244T221 90Q217 67 219 50T233 32Q244 32 255 43T275 69Q277 71 280 69T283
63Q278 54 269 43T250 23T228 7T208 0Q191 0 185 14T180 52Q181 69 184 84T191 116Q182 95 167 76T136 40T105 14T78 0Q61 0 46 14T30 61Q30 99 43 134T78 197T130 240T194 257Q205 257 213 254T229 246Q247 300 272 359T328 474T391 582T460 671T532 733T602 756ZM96
35Q107 35 122 47T153 80T183 126T208 181Q211 191 214 200T219 218Q215 230 204 235T179 241Q158 241 138 229T103 194T78 142T68 76Q68 55 76 45T96 35Z" />
<glyph unicode="e" glyph-name="e" horiz-adv-x="206" d="M206 212Q206 198 195 186T165 165T122 147T70 132Q69 121 69 110T68 86Q68 61 79 44T110 27Q130 27 147 37T179 64Q183 66 185 63T185 56Q168 33 143 17T89 0Q63 0 47 17T30 67Q30 97 41 130T70 192T111
238T161 256Q180 256 193 243T206 212ZM140 230Q117 230 99 210T73 147Q121 154 143 167T166 198Q166 212 159 221T140 230Z" />
<glyph unicode="f" glyph-name="f" horiz-adv-x="156" d="M464 727Q483 727 496 719T515 698T522 670T515 639Q513 636 510 637T505 641Q503 661 487 676T435 692Q397 692 363 672T293 602T221 467T142 252Q165 253 190 253T243 253Q248 251 248 248T238 242Q213
241 188 240T137 237Q134 226 130 217Q89 86 46 -2T-42 -144T-133 -220T-228 -243Q-262 -243 -276 -228T-291 -193Q-291 -184 -287 -174T-277 -155Q-274 -152 -272 -154T-269 -159Q-273 -167 -272 -177T-264 -197T-242 -213T-204 -220Q-180 -220 -157 -214T-110
-192T-63 -145T-14 -67T38 51T94 215Q96 220 97 224T100 234Q83 232 66 230T32 223Q27 224 29 228T38 236T54 243T71 248Q79 249 87 249T105 251Q141 359 182 446T270 596T365 693T464 727Z" />
<glyph unicode="g" glyph-name="g" horiz-adv-x="210" d="M226 270Q229 272 232 270T233 263Q225 251 213 242T183 233Q192 218 192 194Q192 171 185 152T169 116T151 84T136 53T130 21T142 -16Q151 -33 158 -46T171 -72T179 -98T182 -126Q182 -150 172 -171T143
-209T97 -235T36 -245Q1 -245 -27 -235T-74 -209T-104 -171T-114 -126Q-114 -96 -93 -74T-31 -40Q-26 -40 -25 -43T-26 -50Q-47 -58 -60 -74T-73 -117Q-73 -168 -38 -199T54 -230Q102 -230 125 -206T148 -142Q148 -119 141 -101T120 -60Q101 -28 103 1T124 63Q126
67 128 70T133 79Q122 67 108 58T83 49Q34 49 34 113Q34 134 42 159T64 205T98 241T142 255Q177 255 196 257T226 270ZM146 103Q152 117 156 132T160 162Q160 191 151 207T120 224Q96 224 80 200T63 132Q63 103 72 90T101 77Q112 77 125 84T146 103Z" />
<glyph unicode="h" glyph-name="h" horiz-adv-x="292" d="M26 9Q71 181 127 319T244 554T370 703T494 756Q516 756 530 748T550 726T554 697T539 666Q537 663 534 664T531 669Q535 689 519 707T468 725Q421 725 372 688T274 575T178 382T86 107Q102 138 123 165T166
213T210 244T254 256Q266 256 272 250T278 236Q278 223 269 207Q248 170 235 131T221 60Q221 46 224 37T236 28Q246 28 257 38T278 62Q281 64 284 62T286 55Q280 46 271 37T252 19T230 5T210 0Q185 0 185 42Q185 78 197 120T226 196Q232 206 232 213Q232 222 221
222Q203 222 182 208T139 167T97 102T61 15Q59 8 51 4T34 0Q23 0 26 9Z" />
<glyph unicode="i" glyph-name="i" horiz-adv-x="149" d="M52 186Q49 184 47 187T46 194Q60 208 84 226T132 256Q140 256 140 247Q127 224 115 197T93 144T77 93T71 52Q71 31 85 31Q96 31 106 40T131 66Q133 68 136 65T137 58Q119 36 99 18T60 0Q34 0 34 33Q34
52 40 78T57 132T79 184T104 227Q93 219 77 207T52 186ZM142 299Q139 296 137 298T133 305T132 316T135 326Q161 362 208 403Q211 404 214 402T215 397Q194 378 175 352T142 299Z" />
<glyph unicode="j" glyph-name="j" horiz-adv-x="136" d="M84 221Q73 213 63 205T43 187Q39 186 38 189T37 195Q51 209 74 226T121 255Q131 255 129 246Q94 107 52 13T-39 -138T-138 -220T-243 -245Q-278 -245 -292 -218T-295 -147Q-293 -145 -290 -145T-286 -148Q-289
-163 -287 -176T-275 -199T-251 -216T-211 -222Q-171 -222 -133 -203T-57 -134T16 2T84 221ZM133 298Q127 293 124 304T126 324Q140 344 157 362T198 401Q201 403 204 401T205 396Q184 377 166 351T133 298Z" />
<glyph unicode="k" glyph-name="k" horiz-adv-x="259" d="M144 131Q155 78 172 50T214 21Q225 21 234 26T255 45Q258 47 260 45T261 39Q247 21 231 11T193 0Q161 0 142 34T111 133Q110 141 116 143Q134 139 152 142T184 154T206 175T215 204Q215 229 190 229Q156
229 126 196T81 97Q77 80 73 60T65 25Q63 17 61 13T52 6Q40 0 31 0Q23 0 26 9Q57 176 110 313T228 549T360 702T488 756Q510 756 524 748T544 726T548 697T533 665Q526 660 524 668Q529 688 515 707T465 726Q421 726 372 693T272 591T176 416T92 162Q114 205 143
230T212 256Q229 256 239 244T250 217Q250 185 220 161T144 131Z" />
<glyph unicode="l" glyph-name="l" horiz-adv-x="134" d="M442 743Q468 743 475 719T469 668Q467 666 464 668T460 673Q462 685 452 693T419 701Q376 701 334 665T253 572T181 443T123 302T84 169T70 67Q70 37 87 37Q99 37 110 47T137 77Q140 79 142 77T144 70Q124
39 100 20T59 0Q46 0 38 10T30 39Q30 67 40 111T68 211T111 326T167 446T230 559T299 654T371 719T442 743Z" />
<glyph unicode="m" glyph-name="m" horiz-adv-x="413" d="M356 210Q356 231 341 231Q326 231 308 216T271 173T232 105T194 13Q192 7 184 4T167 0Q155 0 158 9Q164 27 174 54T194 109T211 163T218 202Q218 230 201 230Q175 230 135 174T59 13Q57 7 50 4T35 0Q30
0 27 2T26 9Q34 31 43 57T61 111T77 164T90 213Q95 231 85 231Q77 231 66 220T44 194Q41 192 38 194T37 200Q52 221 70 238T108 256Q121 256 124 246T125 222Q120 200 116 182T104 144Q130 194 161 225T224 256Q236 256 243 247T251 222Q251 201 247 180T235 137Q265
194 299 225T368 256Q379 256 386 248T393 227Q393 209 386 188T369 143T353 98T345 55Q345 30 360 30Q376 30 404 63Q406 65 408 62T409 55Q403 47 394 38T376 20T355 6T334 0Q311 0 311 38Q311 62 318 86T333 133T349 176T356 210Z" />
<glyph unicode="n" glyph-name="n" horiz-adv-x="291" d="M282 64Q285 66 288 64T290 58Q273 35 253 18T214 0Q183 0 183 40Q183 74 195 115T228 199Q232 206 232 213Q232 224 222 224Q185 224 141 173T58 13Q56 7 47 4T30 0Q19 0 22 9Q39 52 57 106T90 213Q94
232 83 232Q73 232 63 222T42 196Q40 194 38 197T36 203Q47 220 66 238T107 256Q132 256 124 222Q120 200 113 176T98 127Q112 154 131 178T170 219T211 246T250 256Q262 256 268 250T275 236Q275 223 269 210Q248 172 234 131T219 54Q219 29 235 29Q256 29 282
64Z" />
<glyph unicode="o" glyph-name="o" horiz-adv-x="225" d="M162 256Q189 256 202 238T215 191Q215 157 202 123T169 62T126 17T82 0Q58 0 44 19T30 73Q30 101 41 133T70 192T112 238T162 256ZM102 31Q117 31 131 41T157 69T174 110T181 158Q181 188 171 205T138
223Q123 223 109 213T85 185T68 144T62 94Q62 31 102 31Z" />
<glyph unicode="p" glyph-name="p" horiz-adv-x="261" d="M207 255Q227 255 239 237T251 191Q251 152 238 118T201 57T145 15T75 -1Q58 -1 47 6Q30 -44 16 -100T2 -206Q2 -228 25 -225Q40 -222 55 -213Q58 -212 58 -216T57 -224Q45 -231 24 -238T-16 -245Q-24
-245 -29 -242T-34 -229Q-34 -178 -18 -111T24 28Q22 31 21 34T18 42Q17 46 33 51Q46 87 61 123T91 193Q110 235 109 244T96 248Q89 244 80 237T63 221Q61 219 59 222T57 228Q63 235 73 244T93 261T114 276T133 282Q141 282 143 274T140 251Q134 234 125 212T104
167Q132 209 159 232T207 255ZM100 19Q125 19 146 30T183 60T207 106T216 165Q216 189 208 204T181 220Q158 220 126 179T67 63Q65 58 64 53T60 43Q65 32 74 26T100 19Z" />
<glyph unicode="q" glyph-name="q" horiz-adv-x="269" d="M175 -217Q178 -216 178 -221T175 -228Q157 -235 136 -239T102 -244Q80 -244 84 -206Q88 -179 97 -139T120 -56T149 29T182 101Q169 84 154 67T122 36T91 13T64 0Q46 0 36 14T25 61Q25 98 40 133T80 195T140
238T213 255Q240 255 260 237Q271 246 280 247T288 243Q255 196 228 140T180 26T146 -87T127 -189Q125 -206 129 -214T145 -223Q158 -223 175 -217ZM86 34Q96 34 112 46T145 75T176 110T198 141Q211 166 218 179T236 210Q235 221 225 230T198 239Q169 239 145 226T102
189T73 135T62 69Q62 34 86 34Z" />
<glyph unicode="r" glyph-name="r" horiz-adv-x="195" d="M121 228Q121 213 118 193T110 153Q130 201 154 228T206 256Q217 256 226 250T235 233Q235 225 229 213T217 194Q211 190 211 197Q211 214 188 214Q153 214 125 162T72 16Q70 6 59 3T39 0Q28 0 34 11Q43
32 51 56T66 106T79 155T87 199Q91 229 77 229Q69 229 59 220T39 199Q35 197 32 199T31 206Q46 225 64 240T99 256Q121 256 121 228Z" />
<glyph unicode="s" glyph-name="s" horiz-adv-x="188" d="M139 256Q159 256 172 250T186 235Q186 224 182 210T172 187Q170 185 167 186T164 191Q167 198 168 207T167 223Q162 243 139 243Q122 243 112 233T101 203Q101 187 109 173T128 144T147 113T156 76Q156
44 134 22T66 0Q35 0 15 11T-5 34Q-5 43 6 61T31 90Q34 92 36 89T37 83Q29 75 25 65T23 46Q26 29 38 21T68 12Q94 12 108 26T123 62Q123 81 114 97T95 129T76 160T67 194Q67 220 86 238T139 256Z" />
<glyph unicode="t" glyph-name="t" horiz-adv-x="171" d="M206 252Q211 250 210 246T201 241Q185 240 166 239T126 236Q106 186 93 140T80 64Q80 30 106 30Q132 30 163 76Q166 78 169 76T171 68Q162 54 151 42T127 20T104 6T86 0Q64 0 54 13T43 46Q43 79 57 129T92
232Q79 230 67 228T44 224Q39 225 41 229T50 237T66 244T83 248Q88 249 91 249T99 249Q113 280 127 308T155 361Q161 367 168 371T183 377T194 379T197 375Q180 349 164 317T132 251Q150 251 168 251T206 252Z" />
<glyph unicode="u" glyph-name="u" horiz-adv-x="299" d="M65 0Q52 0 42 12T32 45Q32 61 36 82T48 128T67 176T92 221Q81 213 69 204T49 186Q46 184 44 187T43 194Q50 201 61 210T84 228T110 245T136 260Q140 261 142 258T144 251Q112 210 93 161T73 66Q73 37
90 37Q103 37 122 54T163 100T205 165T245 238Q248 245 256 250T275 256Q288 256 284 248Q270 222 259 200T241 155T231 110T227 60Q227 28 245 28Q253 28 263 36T283 59Q286 61 289 59T290 52Q276 31 258 16T222 0Q209 0 200 13T191 48Q191 72 195 99T210 155Q191
118 170 90T130 41T93 11T65 0Z" />
<glyph unicode="v" glyph-name="v" horiz-adv-x="271" d="M102 14Q88 8 74 4T49 0Q37 0 43 13Q60 55 72 104T88 193Q91 228 77 228Q63 228 40 205Q35 203 32 206T32 213Q55 236 72 246T105 256Q117 256 121 247T126 224Q126 205 122 179T112 125T97 69T82 19Q110
26 138 45T188 89T223 143T237 203Q237 229 220 229Q206 229 195 213Q192 211 190 214T189 220Q197 233 211 244T240 256Q251 256 258 246T266 216Q266 187 254 158T219 102T167 52T102 14Z" />
<glyph unicode="w" glyph-name="w" horiz-adv-x="369" d="M323 255Q337 255 346 239T356 190Q356 152 342 118T305 57T257 16T209 0Q191 0 181 14T170 56Q170 68 171 82T174 110T178 138T184 161Q163 135 141 99T97 26Q89 10 84 5T70 0Q62 0 64 11Q71 35 75 70T80
139T76 198T59 228Q53 230 44 225T29 209Q27 207 24 209T21 216Q23 221 29 227T43 240T60 250T77 255Q96 255 105 231T114 148Q114 122 112 101T106 64Q126 98 144 123T178 170Q184 178 188 188T198 218Q199 222 205 226T217 234T227 238T232 236Q217 203 209 160T200
79Q200 31 234 31Q251 31 269 42T301 71T325 114T335 166Q335 205 320 216T287 213Q279 211 281 220Q284 225 289 231T300 242T313 251T323 255Z" />
<glyph unicode="x" glyph-name="x" horiz-adv-x="263" d="M250 64Q253 66 256 64T258 58Q252 47 243 37T224 18T204 5T186 -1Q168 -1 148 24T114 92Q88 47 62 23T9 -1Q-7 -1 -7 20Q-7 32 -3 47T10 79Q12 81 14 79T17 73Q9 55 14 44T30 32Q47 32 66 49T109 108Q102
133 100 155T97 192T94 217T87 226Q80 226 72 215T59 190Q57 188 54 189T51 193Q53 202 59 212T74 232T92 248T110 255Q117 255 120 246T125 223T128 190T132 151Q156 196 186 225T245 255Q259 255 266 248T274 229Q274 220 269 207T257 182Q254 180 252 181T249
186Q259 203 255 215T235 227Q209 227 186 204T136 133Q148 85 166 56T204 27Q217 27 228 38T250 64Z" />
<glyph unicode="y" glyph-name="y" horiz-adv-x="280" d="M243 232Q244 235 248 238T257 246T268 252T277 255Q286 255 284 248Q262 186 241 128T196 6Q169 -64 139 -111T75 -188T5 -231T-69 -244Q-122 -244 -149 -218T-177 -152Q-177 -134 -168 -114T-138 -79Q-135
-77 -133 -81T-132 -87Q-148 -106 -148 -130Q-148 -172 -124 -198T-51 -224Q-16 -224 13 -213T69 -174T120 -99T171 19Q182 52 192 80T214 138Q176 78 135 40T61 -1Q48 -1 42 11T36 44Q36 62 40 83T51 128T70 174T96 220Q85 212 73 203T53 185Q50 183 48 186T47
193Q61 207 85 225T132 255Q142 255 140 246Q125 226 113 202T91 153T77 104T72 61Q72 33 91 33Q107 33 129 54T174 106T215 171T243 232Z" />
<glyph unicode="z" glyph-name="z" horiz-adv-x="238" d="M48 49Q71 41 95 36T145 30Q171 30 187 44T215 88Q218 90 222 88T224 82Q210 44 188 22T134 -1Q113 -1 92 3T48 16Q36 21 26 17T0 -1Q-5 -1 -8 4T-8 14Q14 36 40 62T94 115T146 167T193 213Q171 218 144
221T98 224Q69 224 58 192Q56 189 52 191T48 196Q56 218 73 236T116 255Q139 255 160 251T195 242Q206 240 214 242T230 252Q233 255 239 255Q251 255 249 247Q195 195 144 145T48 49Z" />
<glyph unicode="{" glyph-name="braceleft" horiz-adv-x="291" d="M209 496Q223 563 262 592T379 622Q387 620 386 614T375 608Q318 608 289 584T248 506Q243 485 241 469T238 436T234 404T227 366Q219 336 199 311T147 272Q172 265 182 243T186 192Q180 166 172
146T156 105T141 65T128 21Q118 -30 136 -55T205 -81Q210 -83 209 -88T199 -96Q127 -96 102 -66T88 16Q94 43 102 64T118 104T134 142T148 185Q152 200 149 212T140 234T123 250T101 258Q95 263 99 270T120 282Q152 290 167 308T191 361Q201 401 201 432T209 496Z"
/>
<glyph unicode="|" glyph-name="bar" horiz-adv-x="162" d="M102 -243H80V645H102V-243V-243Z" />
<glyph unicode="}" glyph-name="braceright" horiz-adv-x="285" d="M177 31Q163 -37 124 -66T7 -96Q-1 -94 0 -88T11 -81Q68 -81 97 -58T138 21Q143 42 145 58T148 91T152 123T159 160Q167 190 188 215T239 254Q214 261 204 284T200 335Q206 360 214 381T230 421T245
461T258 505Q268 556 250 581T181 607Q176 609 177 614T187 622Q259 622 284 592T298 511Q292 483 284 462T268 423T252 385T238 342Q234 327 237 315T246 292T263 276T285 268Q291 263 287 256T266 245Q234 237 219 219T195 165Q185 125 185 94T177 31Z" />
<glyph unicode="~" glyph-name="asciitilde" horiz-adv-x="383" d="M52 139Q71 164 96 184T150 204Q168 204 182 198T211 186T240 173T277 167Q315 167 351 208Q356 210 360 207T362 199Q339 171 312 154T256 137Q234 137 218 143T189 155T162 168T133 174Q110
174 94 162T60 130Q55 127 53 130T52 139Z" />
<glyph unicode="&#xa0;" glyph-name="space" horiz-adv-x="150" />
<glyph unicode="&#xa1;" glyph-name="exclamdown" horiz-adv-x="189" d="M171 255Q184 255 184 233Q184 227 180 220T169 206T154 195T136 190Q126 190 126 204Q126 212 130 221T141 237T156 250T171 255ZM-76 -270Q-57 -231 -31 -176T21 -64T70 42T106 123Q114
132 119 130T122 116Q107 83 88 35T50 -63T16 -161T-9 -240Q-15 -249 -28 -260T-55 -279T-75 -286T-76 -270Z" />
<glyph unicode="&#xa2;" glyph-name="cent" horiz-adv-x="194" d="M179 310Q194 305 204 295T214 272Q214 267 211 260T203 246T193 234T184 226Q178 226 178 231Q184 245 181 259T165 280Q142 229 122 182T81 86H88Q108 86 122 93T153 120Q156 122 159 119T160
112Q139 84 115 70T69 56Q57 27 45 -2T21 -64Q15 -74 9 -74T4 -66Q18 -31 30 -1T54 57Q37 62 27 77T17 115Q17 152 29 187T63 249T110 294T163 311Q170 327 177 344T192 378Q197 384 203 383T208 374Q200 357 193 342T179 310ZM68 92Q88 139 108 185T151 285Q149
286 144 286Q126 286 110 275T81 244T61 196T54 135Q54 104 68 92Z" />
<glyph unicode="&#xa3;" glyph-name="sterling" horiz-adv-x="344" d="M293 313Q319 313 328 288T326 231Q323 228 320 229T315 233Q313 250 301 264T263 278Q248 278 237 274T217 257T199 222T182 166Q201 166 223 166T274 165Q279 163 278 159T269 154Q220 154
178 151Q162 90 136 55Q159 46 184 36T249 26Q268 26 282 32T306 47Q310 49 313 47T314 41Q292 19 272 7T223 -6Q185 -6 160 5T112 28Q95 13 75 7T34 0Q6 0 6 15Q6 32 29 49T84 66Q93 66 101 65T117 62Q124 76 131 97T146 147Q132 145 118 143T87 139Q82 140 84
144T93 152T109 159T126 163Q133 164 138 164T150 165Q159 194 173 221T206 268T247 301T293 313ZM56 17Q68 17 78 20T98 34Q87 39 76 42T51 45Q31 45 31 33Q31 17 56 17Z" />
<glyph unicode="&#xa4;" glyph-name="currency" horiz-adv-x="344" d="M332 312Q336 314 341 310T342 300Q328 286 310 270T272 235Q288 213 288 182Q288 149 274 121T235 75Q243 61 249 48T264 23Q266 14 262 6T252 1Q244 16 235 31T218 64Q188 48 153 48Q120
48 98 64Q78 47 60 31T27 1Q22 -1 18 3T17 13Q31 26 48 42T85 76Q67 100 67 138Q67 167 80 194T118 240Q111 253 104 266T90 291Q87 299 91 307T102 313Q110 299 118 283T135 251Q164 268 201 268Q235 268 260 248Q280 265 298 281T332 312ZM167 66Q187 66 205
74T236 97T258 130T266 170Q266 207 246 228T191 250Q168 250 149 242T116 219T95 185T87 145Q87 110 105 88T167 66Z" />
<glyph unicode="&#xa5;" glyph-name="yen" horiz-adv-x="309" d="M296 313Q312 313 320 301T329 271Q328 266 326 265T321 266Q310 286 277 286Q261 286 245 277T213 251T183 214T157 169Q171 169 187 169T225 168Q230 166 229 163T220 157Q200 157 183 157T150
155Q147 147 144 140T137 124Q151 124 168 124T207 123Q212 121 211 118T202 112Q182 112 165 112T132 110Q125 89 121 70T117 37Q117 15 133 15Q147 15 155 19Q159 19 160 16T159 10Q152 7 133 4T101 0Q85 0 85 27Q85 50 90 70T103 108Q86 106 68 104T28 97Q23
98 26 102T35 110T51 117T68 121Q79 123 89 123T108 124Q115 140 116 152Q100 150 83 148T46 141Q41 142 43 146T53 154T69 161T86 166Q94 167 102 167T118 168Q122 220 108 254T68 288Q55 288 46 278Q42 276 40 278T39 285Q47 293 62 303T89 313Q101 313 112 305T131
279T143 234T143 169Q185 247 223 280T296 313Z" />
<glyph unicode="&#xa6;" glyph-name="brokenbar" horiz-adv-x="162" d="M81 314V645H102V314H81ZM102 89V-243H81V89H102Z" />
<glyph unicode="&#xa7;" glyph-name="section" horiz-adv-x="395" d="M385 517Q427 517 451 493T475 439Q475 421 463 399T438 360Q435 357 432 360T430 368Q435 376 439 389T444 417Q444 446 423 467T359 488Q308 488 280 461T252 383Q252 330 262 284T284 192T307
97T317 -9Q317 -60 301 -103T253 -177T177 -225T75 -243Q46 -243 23 -235T-16 -214T-42 -182T-51 -145Q-51 -122 -37 -95T6 -41Q10 -39 12 -42T13 -51Q-1 -66 -7 -81T-13 -117Q-13 -137 -5 -154T19 -185T55 -206T102 -214Q155 -214 181 -185T208 -103Q208 -48 198
-2T176 89T153 180T143 283Q143 334 159 377T207 451T283 499T385 517ZM222 350Q222 390 237 425T282 483Q240 471 210 428T179 320Q179 261 188 212T209 116T230 26T240 -69Q240 -118 223 -152T178 -208Q221 -194 251 -149T281 -37Q281 20 272 70T252 167T231
258T222 350Z" />
<glyph unicode="&#xa8;" glyph-name="dieresis" horiz-adv-x="174" d="M33 319Q20 319 20 338Q20 349 31 364T60 379Q70 379 70 365Q70 350 59 335T33 319ZM118 319Q105 319 105 338Q105 349 116 364T144 379Q154 379 154 365Q154 350 143 335T118 319Z" />
<glyph unicode="&#xa9;" glyph-name="copyright" horiz-adv-x="331" d="M203 313Q223 313 234 308T246 296Q246 290 242 278T233 260Q231 258 229 260T226 264Q231 276 227 283Q218 297 195 297Q164 297 151 280T137 233Q137 183 181 183Q197 183 207 189T222
206Q224 208 226 206T229 201Q223 188 207 179T171 169Q143 169 129 185T115 224Q115 240 121 256T139 285T167 305T203 313ZM199 350Q172 350 150 340T111 313T86 273T77 227Q77 187 98 161T170 135Q193 135 214 145T252 171T277 210T287 257Q287 300 264 325T199
350ZM155 121Q107 121 84 148T60 221Q60 248 71 274T102 320T149 353T209 365Q251 365 278 339T306 269Q306 239 295 212T263 165T216 133T155 121Z" />
<glyph unicode="&#xaa;" glyph-name="ordfeminine" horiz-adv-x="226" d="M187 208Q189 210 191 208T192 202Q180 186 169 179T150 171Q139 171 138 189T143 232Q128 208 112 191T79 171Q68 171 62 181T55 211Q55 229 62 247T82 280T112 304T147 313Q166 313 178
304Q186 312 195 312Q200 312 200 309Q187 293 178 275T164 241T159 211T161 193Q163 190 169 191T187 208ZM91 195Q97 195 106 202T124 221T143 250T160 284Q158 291 151 294T135 297Q113 297 95 276T77 219Q77 207 81 201T91 195Z" />
<glyph unicode="&#xab;" glyph-name="guillemotleft" horiz-adv-x="289" d="M191 251Q198 253 200 246T194 233Q180 224 161 209T121 179T83 148T55 123Q76 106 99 82T136 38Q137 34 136 27T132 14T125 5T114 3Q95 32 70 59T23 104Q14 112 25 121Q63 155 106 189T191
251ZM291 251Q298 253 300 246T294 233Q280 224 261 209T221 179T183 148T155 123Q176 106 199 82T236 38Q237 34 236 27T232 14T225 5T214 3Q195 32 170 59T123 104Q114 112 125 121Q163 155 206 189T291 251ZM291 251Q298 253 300 246T294 233Q280 224 261 209T221
179T183 148T155 123Q176 106 199 82T236 38Q237 34 236 27T232 14T225 5T214 3Q195 32 170 59T123 104Q114 112 125 121Q163 155 206 189T291 251Z" />
<glyph unicode="&#xac;" glyph-name="logicalnot" horiz-adv-x="265" d="M233 235Q241 231 238 221Q235 215 231 204T221 180T211 152T201 126Q198 121 193 119T181 116T171 118T167 125Q170 134 175 147T185 175T194 201T201 219Q183 219 158 219T106 219T57
218T20 217Q14 219 16 224T28 231Q44 232 72 232T130 233T188 234T233 235Z" />
<glyph unicode="&#xae;" glyph-name="registered" horiz-adv-x="331" d="M209 365Q251 365 278 339T306 269Q306 239 295 212T263 165T216 133T156 121Q107 121 84 148T60 221Q60 248 71 274T102 320T149 353T209 365ZM171 135Q194 135 215 145T252 171T277 210T287
257Q287 300 264 325T199 350Q172 350 150 340T111 313T87 273T78 227Q78 187 99 161T171 135ZM233 278Q233 261 220 249T186 233Q191 207 197 196T215 185Q220 185 227 190Q234 192 232 183Q227 178 220 174T203 169Q186 169 180 187T167 234Q167 238 169 239Q171
241 174 242T179 246Q181 247 183 246T188 245Q196 243 204 249Q215 256 215 272Q215 286 205 292T177 298Q172 288 166 274T154 244T143 211T135 179Q133 175 127 172T116 169Q113 169 113 173Q121 203 132 234T158 289Q161 294 168 298Q157 296 147 294T125 287Q121
287 124 292T132 299Q143 304 158 308T189 313Q211 313 222 303T233 278Z" />
<glyph unicode="&#xb0;" glyph-name="degree" horiz-adv-x="104" d="M132 373Q115 373 105 362T94 335Q94 322 100 314T123 306Q137 306 148 317T159 344Q159 373 132 373ZM117 293Q98 293 89 303T80 331Q80 352 96 369T137 386Q153 386 163 376T174 350Q174 326
158 310T117 293Z" />
<glyph unicode="&#xb1;" glyph-name="plusminus" horiz-adv-x="301" d="M269 155Q277 153 271 145T252 135H168Q162 117 156 99T143 62Q138 49 127 46T116 51Q129 96 143 135Q121 134 99 134T56 133Q50 135 55 144T85 156H150Q158 178 166 199T182 243Q183 247
188 250T198 255T207 256T211 251Q200 224 192 201T176 156Q199 156 223 156T269 155ZM40 23Q55 23 77 23T123 24T174 24T224 22Q232 21 226 13T207 2Q162 3 111 3T11 0Q5 2 10 11T40 23Z" />
<glyph unicode="&#xb2;" glyph-name="twosuperior" horiz-adv-x="215" d="M153 313Q171 313 180 302T190 277Q190 262 184 250T167 226T138 203T96 176Q118 168 152 168Q172 168 179 179Q181 181 183 180T184 174Q176 162 166 155T139 147Q124 147 113 150T93
155T77 159T63 156Q54 150 51 147Q48 147 46 151T48 158Q73 174 94 187T131 213T156 238T165 268Q165 279 159 286T136 294Q120 294 110 282T96 256Q94 254 91 255T88 261Q92 280 109 296T153 313Z" />
<glyph unicode="&#xb3;" glyph-name="threesuperior" horiz-adv-x="190" d="M133 313Q148 313 156 305T164 286Q164 259 124 242Q144 247 154 238T165 213Q165 185 141 166T81 147Q44 147 47 183Q49 189 53 185Q59 161 99 161Q118 161 129 171T140 200Q140 231
112 231Q105 231 100 229T90 225Q87 224 86 228T87 234Q119 245 130 256T141 280Q141 300 122 300Q110 300 101 294T87 277Q85 275 82 277T80 283Q87 294 100 303T133 313Z" />
<glyph unicode="&#xb4;" glyph-name="acute" horiz-adv-x="157" d="M93 381Q98 384 111 380T134 372Q141 368 135 362Q126 356 112 349T83 336T53 324T24 314Q20 314 20 317T24 325Q37 333 58 348T93 381Z" />
<glyph unicode="&#xb5;" glyph-name="mu" horiz-adv-x="324" d="M304 50Q307 52 310 50T312 44Q298 24 279 12T248 -1Q235 -1 226 12T216 48Q216 97 236 155Q217 118 196 89T156 40T119 10T91 -1Q77 -1 75 25T83 94Q59 34 44 -21T27 -125Q26 -133 13 -142T-10
-152Q-20 -152 -19 -142Q-10 -98 4 -50T36 47T77 142T122 228Q130 236 141 245T160 255Q164 256 166 253T167 246Q138 204 118 158T98 65Q98 36 116 36Q129 36 148 53T189 99T231 164T271 237Q274 245 282 250T301 255Q314 255 310 247Q296 221 285 199T267 154T257
110T253 60Q253 28 271 28Q287 28 304 50Z" />
<glyph unicode="&#xb6;" glyph-name="paragraph" horiz-adv-x="392" d="M423 320Q428 318 426 311T416 301Q407 301 398 301T381 299Q369 255 356 207T328 111T298 20T268 -58Q227 -152 156 -197T-2 -243Q-45 -243 -69 -221T-93 -167Q-93 -142 -81 -121T-46 -89Q-41
-89 -40 -94T-41 -102Q-49 -108 -53 -117T-57 -143Q-57 -178 -39 -200T22 -222Q53 -222 86 -191T149 -84Q157 -62 164 -40T180 6Q142 16 118 43T93 111Q93 157 116 195T182 261T286 304T423 320ZM230 -68Q244 -35 259 8T289 99T318 197T344 296Q314 293 286 285Q274
240 261 189T233 88T205 -7T176 -86Q156 -132 134 -164T78 -215Q123 -204 162 -170T230 -68Z" />
<glyph unicode="&#xb7;" glyph-name="middot" horiz-adv-x="112" d="M42 120Q30 120 30 142Q30 148 34 155T45 169T60 180T77 185Q87 185 87 170Q87 162 83 154T72 138T57 125T42 120Z" />
<glyph unicode="&#xb8;" glyph-name="cedilla" horiz-adv-x="115" d="M94 4Q82 -4 78 -15T78 -37Q86 -59 73 -84T24 -123Q21 -123 21 -120T22 -113Q48 -101 55 -87T57 -53Q52 -37 57 -21T86 10Q91 11 93 9T94 4Z" />
<glyph unicode="&#xb9;" glyph-name="onesuperior" horiz-adv-x="174" d="M57 146Q50 146 50 153Q63 187 79 222T110 288Q83 282 66 279Q64 280 64 283T67 289Q85 292 104 299T141 318Q143 320 146 318T148 313Q124 278 106 235T77 156Q70 146 57 146Z" />
<glyph unicode="&#xba;" glyph-name="ordmasculine" horiz-adv-x="178" d="M124 313Q138 313 145 304T153 277Q153 258 146 239T127 205T103 181T79 171Q50 171 50 211Q50 227 56 245T72 278T96 303T124 313ZM91 193Q107 193 119 213T132 259Q132 293 110 293Q93
293 82 273T70 226Q70 193 91 193Z" />
<glyph unicode="&#xbb;" glyph-name="guillemotright" horiz-adv-x="276" d="M-11 3Q-17 1 -20 7T-15 22Q-3 33 14 47T51 77T88 107T120 132Q109 140 98 152T75 178T54 206T37 231Q35 235 39 240T49 248T61 253T71 251Q86 223 108 195T153 150Q156 147 156 142T151
133Q110 105 66 70T-11 3ZM89 3Q83 1 80 7T85 22Q97 33 114 47T151 77T188 107T220 132Q209 140 198 152T175 178T154 206T137 231Q135 235 139 240T149 248T161 253T171 251Q186 223 208 195T253 150Q256 147 256 142T251 133Q210 105 166 70T89 3Z" />
<glyph unicode="&#xbc;" glyph-name="onequarter" horiz-adv-x="435" d="M416 217Q420 218 422 216T422 211Q411 198 402 187T384 159Q373 140 363 118T343 71Q357 73 364 77T376 89Q378 91 380 89T382 84Q368 58 337 55Q332 44 329 33T321 10Q319 6 312 3T298
0Q293 0 293 5Q298 18 302 30T311 55Q280 57 262 63T236 64Q234 63 234 63T233 61Q230 59 227 61T226 68Q245 87 269 107T318 148T368 186T416 217ZM317 71Q339 125 365 170Q337 150 310 128T256 82Q270 77 284 75T317 71ZM370 344Q377 348 384 345T388 335Q344
286 304 240T224 148T147 56T71 -38Q62 -45 55 -42T51 -31Q94 21 130 64T203 151T279 240T370 344ZM79 97Q72 97 72 105Q80 126 90 149T110 196T131 242T151 284Q135 280 122 277T96 272Q93 273 93 276T96 282Q119 286 143 294T187 317Q191 319 194 317T196 310Q166
265 142 209T105 108Q98 97 79 97Z" />
<glyph unicode="&#xbd;" glyph-name="onehalf" horiz-adv-x="434" d="M389 335Q345 286 304 240T224 148T147 56T71 -38Q63 -45 56 -42T52 -31Q95 21 131 64T203 151T279 240T370 344Q377 348 384 345T389 335ZM80 97Q71 97 73 105Q81 126 91 149T111 196T132
242T152 284Q136 280 123 277T96 272Q94 273 93 276T97 282Q120 286 143 294T188 317Q191 319 194 317T197 310Q166 265 143 209T105 108Q99 97 80 97ZM367 211Q390 211 402 198T414 165Q414 126 378 98T278 36Q292 31 309 28T350 24Q373 24 384 43Q388 47 390
44T392 36Q382 20 369 10T335 0Q316 0 302 3T277 10T256 15T238 11Q232 7 229 5T222 0Q217 -1 216 4T218 14Q251 33 281 50T334 83T371 117T385 154Q385 170 377 179T348 188Q327 188 314 175T296 139Q294 136 289 138T285 145Q290 169 311 190T367 211Z" />
<glyph unicode="&#xbe;" glyph-name="threequarters" horiz-adv-x="476" d="M457 217Q461 218 463 216T463 211Q452 198 443 187T425 159Q414 140 404 118T384 71Q398 73 405 77T417 89Q419 91 421 89T423 84Q409 58 378 55Q373 44 370 33T362 10Q360 6 353 3T339
0Q334 0 334 5Q339 18 343 30T352 55Q321 57 303 63T277 64L274 61Q271 59 268 61T267 68Q286 87 310 107T359 148T409 186T457 217ZM358 71Q380 125 406 170Q378 150 351 128T297 82Q311 77 325 75T358 71ZM411 344Q418 348 425 345T429 335Q385 286 345 240T265
148T188 56T112 -38Q103 -45 96 -42T92 -31Q135 21 171 64T244 151T320 240T411 344ZM200 180Q200 163 192 148T170 122T137 104T94 97Q72 97 61 108T51 143Q52 145 54 146T58 145Q63 129 73 120T111 111Q138 111 155 126T172 167Q172 184 164 194T135 205Q125
205 119 203T105 196Q101 195 100 200T101 207Q139 221 156 234T173 266Q173 292 147 292Q130 292 120 284T101 261Q98 258 95 261T93 269Q101 284 118 296T160 308Q180 308 190 298T200 274Q200 237 149 218Q175 224 187 212T200 180Z" />
<glyph unicode="&#xbf;" glyph-name="questiondown" horiz-adv-x="285" d="M267 255Q280 255 280 234Q280 228 276 221T265 206T250 195T232 190Q227 190 225 194T222 205Q222 212 226 221T237 237T252 250T267 255ZM41 -264Q-2 -264 -26 -237T-50 -174Q-50 -132
-36 -104T1 -55T51 -20T103 8T150 35T181 70Q189 85 185 99T160 115Q153 115 156 119T166 129T184 137T201 139Q210 137 216 129T223 110T219 85T201 58Q174 29 138 9T68 -32T11 -79T-12 -148Q-12 -184 9 -206T68 -229Q105 -229 128 -209T159 -159Q163 -154 169
-159T174 -169Q167 -188 154 -205T123 -235T84 -256T41 -264Z" />
<glyph unicode="&#xc0;" glyph-name="Agrave" horiz-adv-x="996" d="M996 669Q998 667 996 664T988 660Q976 663 959 669T925 682T892 696T865 709Q863 710 863 712T865 717Q875 725 889 729T905 731Q922 717 945 701T996 669ZM1004 585Q1006 583 1006 580T1001
570Q968 534 942 488T898 386T869 270T859 145Q859 97 871 71T912 44Q951 44 988 100Q991 102 994 100T995 94Q985 77 972 61T943 31T914 9T887 0Q854 0 837 33T819 119Q819 199 837 282Q790 282 745 281T655 278Q622 243 592 212T532 155Q452 82 368 41T182 0Q131
0 100 24T57 86T54 167T97 251Q100 253 104 251T107 241Q83 215 79 181T89 116T140 64T234 43Q310 43 387 79T534 180Q556 200 579 224T629 277Q560 272 505 265Q500 266 503 270T512 278T527 286T544 291Q556 292 583 292T646 294Q703 354 773 423T937 565Q870
587 799 601T661 616Q586 616 537 573T475 440Q473 435 470 436T465 442Q477 540 538 592T696 644Q737 644 779 639T861 625T937 606T1004 585ZM840 295Q857 368 887 437T959 564Q871 493 801 425T671 294Q719 295 766 295T840 295Z" />
<glyph unicode="&#xc1;" glyph-name="Aacute" horiz-adv-x="996" d="M988 734Q993 737 1006 733T1029 724Q1031 722 1032 720T1030 715Q1020 708 1005 700T972 685T936 670T902 658Q898 658 898 662T901 669Q921 681 945 697T988 734ZM1004 585Q1006 583 1006
580T1001 570Q968 534 942 488T898 386T869 270T859 145Q859 97 871 71T912 44Q951 44 988 100Q991 102 994 100T995 94Q985 77 972 61T943 31T914 9T887 0Q854 0 837 33T819 119Q819 199 837 282Q790 282 745 281T655 278Q622 243 592 212T532 155Q452 82 368
41T182 0Q131 0 100 24T57 86T54 167T97 251Q100 253 104 251T107 241Q83 215 79 181T89 116T140 64T234 43Q310 43 387 79T534 180Q556 200 579 224T629 277Q560 272 505 265Q500 266 503 270T512 278T527 286T544 291Q556 292 583 292T646 294Q703 354 773 423T937
565Q870 587 799 601T661 616Q586 616 537 573T475 440Q473 435 470 436T465 442Q477 540 538 592T696 644Q737 644 779 639T861 625T937 606T1004 585ZM840 295Q857 368 887 437T959 564Q871 493 801 425T671 294Q719 295 766 295T840 295Z" />
<glyph unicode="&#xc2;" glyph-name="Acircumflex" horiz-adv-x="996" d="M973 746Q978 751 985 745Q998 728 1018 711T1059 684Q1064 679 1055 674T1033 671Q1014 679 999 690T967 715Q961 710 951 704T931 692T910 679T892 670Q882 670 887 679Q904 689 930
708T973 746ZM1004 585Q1006 583 1006 580T1001 570Q968 534 942 488T898 386T869 270T859 145Q859 97 871 71T912 44Q951 44 988 100Q991 102 994 100T995 94Q985 77 972 61T943 31T914 9T887 0Q854 0 837 33T819 119Q819 199 837 282Q790 282 745 281T655 278Q622
243 592 212T532 155Q452 82 368 41T182 0Q131 0 100 24T57 86T54 167T97 251Q100 253 104 251T107 241Q83 215 79 181T89 116T140 64T234 43Q310 43 387 79T534 180Q556 200 579 224T629 277Q560 272 505 265Q500 266 503 270T512 278T527 286T544 291Q556 292
583 292T646 294Q703 354 773 423T937 565Q870 587 799 601T661 616Q586 616 537 573T475 440Q473 435 470 436T465 442Q477 540 538 592T696 644Q737 644 779 639T861 625T937 606T1004 585ZM840 295Q857 368 887 437T959 564Q871 493 801 425T671 294Q719 295
766 295T840 295Z" />
<glyph unicode="&#xc3;" glyph-name="Atilde" horiz-adv-x="996" d="M870 673Q881 689 899 704T935 719Q947 719 956 714T976 702T999 690T1028 684Q1046 684 1057 695T1079 728Q1081 730 1084 729T1087 724Q1075 697 1058 681T1011 665Q997 665 986 670T964 681T943
693T923 698Q910 698 899 690T877 667Q873 665 871 667T870 673ZM1004 585Q1006 583 1006 580T1001 570Q968 534 942 488T898 386T869 270T859 145Q859 97 871 71T912 44Q951 44 988 100Q991 102 994 100T995 94Q985 77 972 61T943 31T914 9T887 0Q854 0 837 33T819
119Q819 199 837 282Q790 282 745 281T655 278Q622 243 592 212T532 155Q452 82 368 41T182 0Q131 0 100 24T57 86T54 167T97 251Q100 253 104 251T107 241Q83 215 79 181T89 116T140 64T234 43Q310 43 387 79T534 180Q556 200 579 224T629 277Q560 272 505 265Q500
266 503 270T512 278T527 286T544 291Q556 292 583 292T646 294Q703 354 773 423T937 565Q870 587 799 601T661 616Q586 616 537 573T475 440Q473 435 470 436T465 442Q477 540 538 592T696 644Q737 644 779 639T861 625T937 606T1004 585ZM840 295Q857 368 887
437T959 564Q871 493 801 425T671 294Q719 295 766 295T840 295Z" />
<glyph unicode="&#xc4;" glyph-name="Adieresis" horiz-adv-x="996" d="M937 667Q926 667 926 684Q926 694 936 707T962 721Q971 721 971 708Q971 694 961 681T937 667ZM1014 667Q1002 667 1002 684Q1002 694 1012 707T1037 721Q1046 721 1046 708Q1046 694 1036
681T1014 667ZM1004 585Q1006 583 1006 580T1001 570Q968 534 942 488T898 386T869 270T859 145Q859 97 871 71T912 44Q951 44 988 100Q991 102 994 100T995 94Q985 77 972 61T943 31T914 9T887 0Q854 0 837 33T819 119Q819 199 837 282Q790 282 745 281T655 278Q622
243 592 212T532 155Q452 82 368 41T182 0Q131 0 100 24T57 86T54 167T97 251Q100 253 104 251T107 241Q83 215 79 181T89 116T140 64T234 43Q310 43 387 79T534 180Q556 200 579 224T629 277Q560 272 505 265Q500 266 503 270T512 278T527 286T544 291Q556 292
583 292T646 294Q703 354 773 423T937 565Q870 587 799 601T661 616Q586 616 537 573T475 440Q473 435 470 436T465 442Q477 540 538 592T696 644Q737 644 779 639T861 625T937 606T1004 585ZM840 295Q857 368 887 437T959 564Q871 493 801 425T671 294Q719 295
766 295T840 295Z" />
<glyph unicode="&#xc5;" glyph-name="Aring" horiz-adv-x="996" d="M989 753Q973 753 965 743T956 714Q956 700 963 691T986 682Q1001 682 1009 693T1018 722Q1018 753 989 753ZM973 670Q957 670 949 680T940 706Q940 729 957 747T1001 765Q1018 765 1026 755T1034
730Q1034 707 1017 689T973 670ZM1004 585Q1006 583 1006 580T1001 570Q968 534 942 488T898 386T869 270T859 145Q859 97 871 71T912 44Q951 44 988 100Q991 102 994 100T995 94Q985 77 972 61T943 31T914 9T887 0Q854 0 837 33T819 119Q819 199 837 282Q790 282
745 281T655 278Q622 243 592 212T532 155Q452 82 368 41T182 0Q131 0 100 24T57 86T54 167T97 251Q100 253 104 251T107 241Q83 215 79 181T89 116T140 64T234 43Q310 43 387 79T534 180Q556 200 579 224T629 277Q560 272 505 265Q500 266 503 270T512 278T527
286T544 291Q556 292 583 292T646 294Q703 354 773 423T937 565Q870 587 799 601T661 616Q586 616 537 573T475 440Q473 435 470 436T465 442Q477 540 538 592T696 644Q737 644 779 639T861 625T937 606T1004 585ZM840 295Q857 368 887 437T959 564Q871 493 801
425T671 294Q719 295 766 295T840 295Z" />
<glyph unicode="&#xc6;" glyph-name="AE" horiz-adv-x="1271" d="M1197 644Q1221 644 1243 640T1284 628T1312 611T1323 591Q1323 583 1320 573T1312 551T1302 531T1294 517Q1291 515 1288 516T1286 522Q1292 533 1295 546T1290 573Q1279 591 1248 609T1177 627Q1118
627 1088 598T1057 523Q1057 491 1080 464T1151 422Q1154 420 1152 416T1144 406T1133 397T1122 392Q1010 397 948 344T886 182Q886 147 896 117T926 65T973 31T1036 18Q1118 18 1170 56T1245 179Q1248 184 1251 182T1256 174Q1243 118 1227 81T1197 38Q1162 22
1113 11T1012 0Q971 0 940 13T888 48T857 102T846 169Q846 195 848 224T856 284Q855 283 855 283T853 282Q802 282 752 281T655 277Q622 242 592 212T533 154Q453 81 368 41T183 0Q132 0 100 24T57 86T54 167T97 251Q101 253 104 251T108 241Q84 215 79 181T89
116T141 64T235 43Q311 43 388 79T534 180Q556 200 579 224T628 275Q599 273 572 271T520 265Q515 266 518 270T527 278T541 286T558 291Q569 292 592 292T646 294Q703 354 773 423T937 565Q871 587 799 601T661 616Q586 616 537 573T476 440Q474 435 471 436T466
442Q477 540 538 592T697 644Q738 644 779 639T859 625T933 606T999 586Q1002 584 1004 581T1001 570Q959 512 935 449T896 311Q928 356 973 378T1075 412Q1048 426 1033 450T1017 501Q1017 529 1030 555T1066 600T1123 632T1197 644ZM858 295Q872 365 897 436T960
564Q871 493 801 425T672 294Q697 294 724 294T776 295T822 295T858 295Z" />
<glyph unicode="&#xc7;" glyph-name="Ccedilla" horiz-adv-x="557" d="M629 591Q629 583 626 572T618 548T606 525T594 505Q591 503 588 505T585 512Q606 549 594 569Q580 591 538 608T442 625Q370 625 311 600T210 528T144 417T120 276Q120 220 135 173T178 91T249
37T345 17Q417 17 465 61T533 180Q536 185 540 184T544 177Q540 156 533 131T516 84T498 45T483 26Q423 2 341 0Q333 -6 330 -15T330 -33Q339 -56 325 -81T276 -120Q273 -119 273 -116T274 -110Q300 -98 307 -84T309 -49Q305 -37 310 -23T328 0Q267 0 219 19T138
71T87 148T69 245Q69 324 98 396T179 524T305 611T466 644Q502 644 531 641T583 630T617 613T629 591Z" />
<glyph unicode="&#xc8;" glyph-name="Egrave" horiz-adv-x="463" d="M469 669Q471 667 469 664T461 660Q449 663 432 669T398 682T365 696T338 709Q336 710 336 712T338 717Q348 725 362 729T378 731Q395 717 418 701T469 669ZM238 523Q238 488 261 464T342 422Q345
420 343 416T335 406T324 397T313 392Q201 397 139 344T77 182Q77 147 87 117T117 65T164 31T227 18Q309 18 361 56T436 179Q439 184 442 182T447 174Q435 118 419 81T388 38Q353 22 304 11T203 0Q161 0 129 13T74 48T41 98T29 158Q29 206 46 248T95 324T170 380T266
412Q234 429 216 452T198 502Q198 530 212 555T252 600T312 632T388 644Q412 644 435 640T476 628T504 611T515 591Q515 583 512 573T504 551T494 531T485 517Q483 515 480 516T477 522Q483 533 486 546T481 573Q470 591 439 609T368 627Q335 627 311 618T271 594T246
561T238 523Z" />
<glyph unicode="&#xc9;" glyph-name="Eacute" horiz-adv-x="463" d="M432 734Q437 737 450 733T473 724Q475 722 476 720T474 715Q464 708 449 700T416 685T380 670T346 658Q342 658 342 662T345 669Q365 681 389 697T432 734ZM238 523Q238 488 261 464T342 422Q345
420 343 416T335 406T324 397T313 392Q201 397 139 344T77 182Q77 147 87 117T117 65T164 31T227 18Q309 18 361 56T436 179Q439 184 442 182T447 174Q435 118 419 81T388 38Q353 22 304 11T203 0Q161 0 129 13T74 48T41 98T29 158Q29 206 46 248T95 324T170 380T266
412Q234 429 216 452T198 502Q198 530 212 555T252 600T312 632T388 644Q412 644 435 640T476 628T504 611T515 591Q515 583 512 573T504 551T494 531T485 517Q483 515 480 516T477 522Q483 533 486 546T481 573Q470 591 439 609T368 627Q335 627 311 618T271 594T246
561T238 523Z" />
<glyph unicode="&#xca;" glyph-name="Ecircumflex" horiz-adv-x="463" d="M391 746Q396 751 403 745Q416 728 436 711T477 684Q482 679 473 674T451 671Q432 679 417 690T385 715Q379 710 369 704T349 692T328 679T310 670Q300 670 305 679Q322 689 348 708T391
746ZM238 523Q238 488 261 464T342 422Q345 420 343 416T335 406T324 397T313 392Q201 397 139 344T77 182Q77 147 87 117T117 65T164 31T227 18Q309 18 361 56T436 179Q439 184 442 182T447 174Q435 118 419 81T388 38Q353 22 304 11T203 0Q161 0 129 13T74 48T41
98T29 158Q29 206 46 248T95 324T170 380T266 412Q234 429 216 452T198 502Q198 530 212 555T252 600T312 632T388 644Q412 644 435 640T476 628T504 611T515 591Q515 583 512 573T504 551T494 531T485 517Q483 515 480 516T477 522Q483 533 486 546T481 573Q470
591 439 609T368 627Q335 627 311 618T271 594T246 561T238 523Z" />
<glyph unicode="&#xcb;" glyph-name="Edieresis" horiz-adv-x="463" d="M361 667Q350 667 350 684Q350 694 360 707T386 721Q395 721 395 708Q395 694 385 681T361 667ZM438 667Q426 667 426 684Q426 694 436 707T461 721Q470 721 470 708Q470 694 460 681T438
667ZM238 523Q238 488 261 464T342 422Q345 420 343 416T335 406T324 397T313 392Q201 397 139 344T77 182Q77 147 87 117T117 65T164 31T227 18Q309 18 361 56T436 179Q439 184 442 182T447 174Q435 118 419 81T388 38Q353 22 304 11T203 0Q161 0 129 13T74 48T41
98T29 158Q29 206 46 248T95 324T170 380T266 412Q234 429 216 452T198 502Q198 530 212 555T252 600T312 632T388 644Q412 644 435 640T476 628T504 611T515 591Q515 583 512 573T504 551T494 531T485 517Q483 515 480 516T477 522Q483 533 486 546T481 573Q470
591 439 609T368 627Q335 627 311 618T271 594T246 561T238 523Z" />
<glyph unicode="&#xcc;" glyph-name="Igrave" horiz-adv-x="514" d="M615 669Q617 667 615 664T607 660Q595 663 578 669T544 682T511 696T484 709Q482 710 482 712T484 717Q494 725 508 729T524 731Q541 717 564 701T615 669ZM698 645Q701 643 700 639T695 630T686
620T677 613Q657 607 641 597T610 566T581 509T552 414Q516 277 454 182Q468 184 480 189T500 198Q503 199 504 197T503 191Q482 177 448 172Q390 88 313 44T141 0Q81 0 46 27T10 93Q10 124 36 155T106 206Q111 205 111 202T110 197Q79 180 64 158T49 113Q49 79
80 54T174 29Q253 29 314 61T423 171Q372 174 345 210T318 303Q318 365 348 426T429 536T550 615T698 645ZM509 392Q520 434 532 467T559 527T592 572T634 606Q565 598 509 568T414 495T353 404T331 307Q331 247 357 216T429 181Q452 221 472 273T509 392Z" />
<glyph unicode="&#xcd;" glyph-name="Iacute" horiz-adv-x="514" d="M600 734Q605 737 618 733T641 724Q643 722 644 720T642 715Q632 708 617 700T584 685T548 670T514 658Q510 658 510 662T513 669Q533 681 557 697T600 734ZM698 645Q701 643 700 639T695 630T686
620T677 613Q657 607 641 597T610 566T581 509T552 414Q516 277 454 182Q468 184 480 189T500 198Q503 199 504 197T503 191Q482 177 448 172Q390 88 313 44T141 0Q81 0 46 27T10 93Q10 124 36 155T106 206Q111 205 111 202T110 197Q79 180 64 158T49 113Q49 79
80 54T174 29Q253 29 314 61T423 171Q372 174 345 210T318 303Q318 365 348 426T429 536T550 615T698 645ZM509 392Q520 434 532 467T559 527T592 572T634 606Q565 598 509 568T414 495T353 404T331 307Q331 247 357 216T429 181Q452 221 472 273T509 392Z" />
<glyph unicode="&#xce;" glyph-name="Icircumflex" horiz-adv-x="514" d="M589 746Q594 751 601 745Q614 728 634 711T675 684Q680 679 671 674T649 671Q630 679 615 690T583 715Q577 710 567 704T547 692T526 679T508 670Q498 670 503 679Q520 689 546 708T589
746ZM698 645Q701 643 700 639T695 630T686 620T677 613Q657 607 641 597T610 566T581 509T552 414Q516 277 454 182Q468 184 480 189T500 198Q503 199 504 197T503 191Q482 177 448 172Q390 88 313 44T141 0Q81 0 46 27T10 93Q10 124 36 155T106 206Q111 205 111
202T110 197Q79 180 64 158T49 113Q49 79 80 54T174 29Q253 29 314 61T423 171Q372 174 345 210T318 303Q318 365 348 426T429 536T550 615T698 645ZM509 392Q520 434 532 467T559 527T592 572T634 606Q565 598 509 568T414 495T353 404T331 307Q331 247 357 216T429
181Q452 221 472 273T509 392Z" />
<glyph unicode="&#xcf;" glyph-name="Idieresis" horiz-adv-x="514" d="M545 667Q534 667 534 684Q534 694 544 707T570 721Q579 721 579 708Q579 694 569 681T545 667ZM622 667Q610 667 610 684Q610 694 620 707T645 721Q654 721 654 708Q654 694 644 681T622
667ZM698 645Q701 643 700 639T695 630T686 620T677 613Q657 607 641 597T610 566T581 509T552 414Q516 277 454 182Q468 184 480 189T500 198Q503 199 504 197T503 191Q482 177 448 172Q390 88 313 44T141 0Q81 0 46 27T10 93Q10 124 36 155T106 206Q111 205 111
202T110 197Q79 180 64 158T49 113Q49 79 80 54T174 29Q253 29 314 61T423 171Q372 174 345 210T318 303Q318 365 348 426T429 536T550 615T698 645ZM509 392Q520 434 532 467T559 527T592 572T634 606Q565 598 509 568T414 495T353 404T331 307Q331 247 357 216T429
181Q452 221 472 273T509 392Z" />
<glyph unicode="&#xd0;" glyph-name="Eth" horiz-adv-x="800" d="M583 591Q632 562 671 522T738 436T780 345T795 256Q795 200 777 154T723 73T637 19T521 0Q483 0 451 5T389 17T332 34T277 52Q239 25 193 13T88 0Q56 0 43 7T30 29Q30 42 39 56T64 82T104 101T156
109Q194 109 226 102T291 85Q320 115 345 163T397 284Q362 282 332 279T277 272Q273 274 278 279T295 289Q309 291 338 293T402 298Q408 315 414 334T427 373Q448 438 473 487T531 572Q492 592 448 604T356 616Q277 616 226 569T164 446Q162 444 159 445T156 450Q160
492 178 527T226 589T299 629T394 644Q441 644 483 633T563 603Q589 624 620 638T691 661Q694 661 694 658T691 652Q631 636 583 591ZM123 18Q165 18 198 27T261 58Q228 68 193 74T116 81Q88 81 76 73T61 50Q58 36 71 27T123 18ZM566 27Q661 27 708 81T756 224Q756
271 742 318T702 410T638 493T555 560Q504 496 473 393Q465 367 457 344T439 299Q476 301 509 301T566 300Q568 299 568 296T561 291Q533 291 501 290T435 287Q407 216 377 165T309 78Q334 69 361 60T418 44T485 32T566 27Z" />
<glyph unicode="&#xd1;" glyph-name="Ntilde" horiz-adv-x="796" d="M613 673Q624 689 642 704T678 719Q690 719 699 714T719 702T742 690T771 684Q789 684 800 695T822 728Q824 730 827 729T830 724Q818 697 801 681T754 665Q740 665 729 670T707 681T686 693T666
698Q653 698 642 690T620 667Q616 665 614 667T613 673ZM1022 644Q1050 644 1066 623T1083 548Q1082 542 1078 542T1071 547Q1069 565 1058 578T1031 596T996 600T957 583Q908 548 867 484T795 343T746 180T725 18Q725 7 723 4T716 0Q712 0 710 4T705 15Q660 186
597 316T453 522Q431 398 390 301T294 137T174 35T40 0Q-31 0 -75 30T-135 105T-138 200T-82 290Q-77 291 -75 288T-74 279Q-103 250 -111 210T-103 132T-46 69T65 43Q134 43 194 76T301 173T382 329T433 540Q391 575 346 593T252 611Q204 611 173 589T127 540Q124
538 121 539T116 545Q125 564 140 582T176 613T222 635T278 644Q320 644 360 629T439 584V586Q440 592 444 600T452 614T461 623T466 621Q465 607 464 594T460 567Q503 529 542 478T614 367T673 241T720 106Q727 166 743 229T782 352T833 465T893 558T957 621T1022
644Z" />
<glyph unicode="&#xd2;" glyph-name="Ograve" horiz-adv-x="608" d="M494 669Q496 667 494 664T486 660Q474 663 457 669T423 682T390 696T363 709Q361 710 361 712T363 717Q373 725 387 729T403 731Q420 717 443 701T494 669ZM448 645Q495 645 533 627T597 577T638
502T653 406Q653 324 622 251T539 122T422 33T287 0Q234 0 194 19T127 70T86 144T72 232Q72 308 101 382T181 515T300 609T448 645ZM330 31Q382 31 432 56T523 126T588 235T613 376Q613 486 561 548T416 611Q349 611 294 584T198 510T136 400T114 265Q114 213 128
170T170 96T238 48T330 31Z" />
<glyph unicode="&#xd3;" glyph-name="Oacute" horiz-adv-x="608" d="M468 734Q473 737 486 733T509 724Q511 722 512 720T510 715Q500 708 485 700T452 685T416 670T382 658Q378 658 378 662T381 669Q401 681 425 697T468 734ZM448 645Q495 645 533 627T597 577T638
502T653 406Q653 324 622 251T539 122T422 33T287 0Q234 0 194 19T127 70T86 144T72 232Q72 308 101 382T181 515T300 609T448 645ZM330 31Q382 31 432 56T523 126T588 235T613 376Q613 486 561 548T416 611Q349 611 294 584T198 510T136 400T114 265Q114 213 128
170T170 96T238 48T330 31Z" />
<glyph unicode="&#xd4;" glyph-name="Ocircumflex" horiz-adv-x="608" d="M450 746Q455 751 462 745Q475 728 495 711T536 684Q541 679 532 674T510 671Q491 679 476 690T444 715Q438 710 428 704T408 692T387 679T369 670Q359 670 364 679Q381 689 407 708T450
746ZM448 645Q495 645 533 627T597 577T638 502T653 406Q653 324 622 251T539 122T422 33T287 0Q234 0 194 19T127 70T86 144T72 232Q72 308 101 382T181 515T300 609T448 645ZM330 31Q382 31 432 56T523 126T588 235T613 376Q613 486 561 548T416 611Q349 611
294 584T198 510T136 400T114 265Q114 213 128 170T170 96T238 48T330 31Z" />
<glyph unicode="&#xd5;" glyph-name="Otilde" horiz-adv-x="608" d="M345 673Q356 689 374 704T410 719Q422 719 431 714T451 702T474 690T503 684Q521 684 532 695T554 728Q556 730 559 729T562 724Q550 697 533 681T486 665Q472 665 461 670T439 681T418 693T398
698Q385 698 374 690T352 667Q348 665 346 667T345 673ZM448 645Q495 645 533 627T597 577T638 502T653 406Q653 324 622 251T539 122T422 33T287 0Q234 0 194 19T127 70T86 144T72 232Q72 308 101 382T181 515T300 609T448 645ZM330 31Q382 31 432 56T523 126T588
235T613 376Q613 486 561 548T416 611Q349 611 294 584T198 510T136 400T114 265Q114 213 128 170T170 96T238 48T330 31Z" />
<glyph unicode="&#xd6;" glyph-name="Odieresis" horiz-adv-x="608" d="M406 667Q395 667 395 684Q395 694 405 707T431 721Q440 721 440 708Q440 694 430 681T406 667ZM483 667Q471 667 471 684Q471 694 481 707T506 721Q515 721 515 708Q515 694 505 681T483
667ZM448 645Q495 645 533 627T597 577T638 502T653 406Q653 324 622 251T539 122T422 33T287 0Q234 0 194 19T127 70T86 144T72 232Q72 308 101 382T181 515T300 609T448 645ZM330 31Q382 31 432 56T523 126T588 235T613 376Q613 486 561 548T416 611Q349 611
294 584T198 510T136 400T114 265Q114 213 128 170T170 96T238 48T330 31Z" />
<glyph unicode="&#xd7;" glyph-name="multiply" horiz-adv-x="301" d="M248 235Q252 237 257 237T267 237T274 234T275 228Q224 186 177 142Q188 121 199 100T220 61Q222 56 214 51T202 50Q192 69 182 88T161 128Q140 108 120 90T82 54Q77 51 72 50T62 49T55 52T54
58Q78 79 102 100T151 145Q140 165 130 184T108 223Q107 229 114 235T126 235Q133 223 144 203T167 160Q207 196 248 235Z" />
<glyph unicode="&#xd8;" glyph-name="Oslash" horiz-adv-x="605" d="M559 610Q603 580 626 527T650 406Q650 324 619 251T537 122T420 33T285 0Q242 0 208 12T148 47Q134 28 123 13T104 -15Q99 -21 92 -20T86 -12Q96 2 108 19T136 57Q103 90 87 135T70 232Q70
283 83 333T121 429T179 514T255 582T345 627T446 644Q500 644 544 619Q552 630 559 639T573 657Q579 662 586 661T591 652Q584 644 576 634T559 610ZM112 265Q112 161 165 99Q204 152 250 215T343 344T435 471T517 583Q473 610 413 610Q346 610 291 583T196 509T134
399T112 265ZM327 30Q379 30 430 55T521 125T585 235T610 376Q610 444 590 494T531 573Q494 524 448 462T354 334T260 204T176 87Q204 60 241 45T327 30Z" />
<glyph unicode="&#xd9;" glyph-name="Ugrave" horiz-adv-x="717" d="M648 669Q650 667 648 664T640 660Q628 663 611 669T577 682T544 696T517 709Q515 710 515 712T517 717Q527 725 541 729T557 731Q574 717 597 701T648 669ZM407 586Q381 596 342 604T262 612Q201
612 157 586T87 517T53 421T55 316Q54 312 50 310T44 312Q30 375 42 434T87 540T173 615T298 644Q340 644 379 635T449 612Q455 607 446 600Q393 558 353 506T284 395T241 275T226 153Q226 87 249 61T310 35Q362 35 412 70T514 177T625 360T752 622Q756 630 769
637T796 644Q812 644 812 637Q794 616 772 578T729 491T687 387T650 280T625 181T615 101Q615 44 652 44Q690 44 726 100Q729 103 733 101T736 94Q725 77 712 61T683 31T654 9T627 0Q599 0 587 23T574 78Q574 128 589 197T636 346Q545 175 456 88T279 0Q231 0 207
32T182 125Q182 186 197 248T242 369T312 484T407 586Z" />
<glyph unicode="&#xda;" glyph-name="Uacute" horiz-adv-x="717" d="M647 734Q652 737 665 733T688 724Q690 722 691 720T689 715Q679 708 664 700T631 685T595 670T561 658Q557 658 557 662T560 669Q580 681 604 697T647 734ZM407 586Q381 596 342 604T262 612Q201
612 157 586T87 517T53 421T55 316Q54 312 50 310T44 312Q30 375 42 434T87 540T173 615T298 644Q340 644 379 635T449 612Q455 607 446 600Q393 558 353 506T284 395T241 275T226 153Q226 87 249 61T310 35Q362 35 412 70T514 177T625 360T752 622Q756 630 769
637T796 644Q812 644 812 637Q794 616 772 578T729 491T687 387T650 280T625 181T615 101Q615 44 652 44Q690 44 726 100Q729 103 733 101T736 94Q725 77 712 61T683 31T654 9T627 0Q599 0 587 23T574 78Q574 128 589 197T636 346Q545 175 456 88T279 0Q231 0 207
32T182 125Q182 186 197 248T242 369T312 484T407 586Z" />
<glyph unicode="&#xdb;" glyph-name="Ucircumflex" horiz-adv-x="718" d="M603 746Q608 751 615 745Q628 728 648 711T689 684Q694 679 685 674T663 671Q644 679 629 690T597 715Q591 710 581 704T561 692T540 679T522 670Q512 670 517 679Q534 689 560 708T603
746ZM407 586Q381 596 342 604T262 612Q201 612 157 586T87 517T53 421T55 316Q54 312 50 310T44 312Q30 375 42 434T87 540T173 615T298 644Q340 644 379 635T449 612Q455 607 446 600Q393 558 353 506T284 395T241 275T226 153Q226 87 249 61T310 35Q362 35 412
70T514 177T625 360T752 622Q756 630 769 637T796 644Q812 644 812 637Q794 616 772 578T729 491T687 387T650 280T625 181T615 101Q615 44 652 44Q690 44 726 100Q729 103 733 101T736 94Q725 77 712 61T683 31T654 9T627 0Q599 0 587 23T574 78Q574 128 589 197T636
346Q545 175 456 88T279 0Q231 0 207 32T182 125Q182 186 197 248T242 369T312 484T407 586Z" />
<glyph unicode="&#xdc;" glyph-name="Udieresis" horiz-adv-x="718" d="M553 667Q542 667 542 684Q542 694 552 707T578 721Q587 721 587 708Q587 694 577 681T553 667ZM630 667Q618 667 618 684Q618 694 628 707T653 721Q662 721 662 708Q662 694 652 681T630
667ZM407 586Q381 596 342 604T262 612Q201 612 157 586T87 517T53 421T55 316Q54 312 50 310T44 312Q30 375 42 434T87 540T173 615T298 644Q340 644 379 635T449 612Q455 607 446 600Q393 558 353 506T284 395T241 275T226 153Q226 87 249 61T310 35Q362 35 412
70T514 177T625 360T752 622Q756 630 769 637T796 644Q812 644 812 637Q794 616 772 578T729 491T687 387T650 280T625 181T615 101Q615 44 652 44Q690 44 726 100Q729 103 733 101T736 94Q725 77 712 61T683 31T654 9T627 0Q599 0 587 23T574 78Q574 128 589 197T636
346Q545 175 456 88T279 0Q231 0 207 32T182 125Q182 186 197 248T242 369T312 484T407 586Z" />
<glyph unicode="&#xdd;" glyph-name="Yacute" horiz-adv-x="662" d="M688 734Q693 737 706 733T729 724Q731 722 732 720T730 715Q720 708 705 700T672 685T636 670T602 658Q598 658 598 662T601 669Q621 681 645 697T688 734ZM427 644Q445 644 455 635T469 605T466
551T444 468Q424 407 408 358T384 258Q378 215 390 193T441 171Q528 171 622 286T829 628Q848 644 863 644Q874 644 871 630Q768 411 681 265T513 32T352 -92T183 -128Q141 -128 108 -114T53 -76T19 -21T7 46Q7 84 20 120T60 184T126 233T219 259Q224 258 224 254T218
245Q172 239 140 224T86 185T56 133T46 71Q46 -5 90 -49T221 -94Q285 -94 343 -72T457 2T569 139T688 351Q660 305 626 266T555 197T484 151T418 134Q373 134 355 160T343 232Q351 287 367 342T400 448Q416 498 423 530T429 581T421 607T401 614Q389 614 376 608T351
593T329 573T312 551Q308 547 305 550T302 559Q309 570 322 585T352 613T389 635T427 644Z" />
<glyph unicode="&#xde;" glyph-name="Thorn" horiz-adv-x="745" d="M616 527Q655 525 686 512T739 476T773 426T785 367Q785 322 770 286T723 223T647 182T543 167Q511 167 484 178Q427 85 356 43T203 0Q165 0 137 12T89 45T60 91T50 146Q50 165 55 185T70 222T94
254T125 276Q135 280 131 269Q102 253 88 226T73 168Q73 139 83 114T114 71T163 42T230 31Q267 31 299 38T360 64T413 113T460 190Q443 202 434 215Q432 218 434 221T440 222Q446 216 452 212T466 202Q482 237 496 278T526 372Q536 410 547 442T570 503Q493 502
450 468T389 377Q386 374 383 376T379 387Q388 413 404 437T444 480T502 511T580 526Q611 590 651 628T748 681Q753 681 753 677T748 671Q704 658 673 623T616 527ZM552 182Q598 182 633 195T693 232T729 285T741 351Q741 413 707 453T606 501Q599 483 593 463T581
420Q563 350 540 294T491 191Q516 182 552 182Z" />
<glyph unicode="&#xdf;" glyph-name="germandbls" horiz-adv-x="304" d="M493 612Q493 645 475 663T422 682Q374 682 332 656T251 573T178 429T113 216Q80 80 40 -8T-46 -149T-142 -223T-247 -244Q-290 -244 -307 -226T-328 -171Q-328 -168 -326 -166T-321 -167Q-313
-189 -290 -203T-220 -218Q-171 -218 -133 -202T-60 -138T7 -6T75 214Q108 340 151 434T243 591T346 685T455 716Q491 716 512 695T534 639Q534 587 510 548T450 477T371 418T293 362T232 302T208 230Q208 207 218 188T240 151T262 115T272 76Q272 44 250 22T181
0Q150 0 131 11T111 34Q111 43 122 61T147 90Q149 92 152 89T153 83Q145 75 141 65T138 46Q142 29 154 21T184 12Q210 12 224 26T238 62Q238 81 228 99T206 135T184 175T174 221Q174 261 197 292T256 352T333 407T410 464T469 530T493 612Z" />
<glyph unicode="&#xe0;" glyph-name="agrave" horiz-adv-x="294" d="M270 63Q272 65 275 63T277 57Q256 28 236 14T201 0Q192 0 187 9T180 33T180 68T189 109Q162 67 132 37T74 0Q56 0 44 17T31 72Q31 105 44 137T81 196T134 239T197 255Q215 255 228 251T252
239Q258 244 268 248T288 253Q293 253 291 248Q268 220 252 186T226 120T215 64T218 30Q223 23 236 29T270 63ZM96 34Q107 34 124 49T161 90T198 146T231 210Q227 223 213 231T179 239Q157 239 138 228T103 196T79 147T70 85Q70 63 77 49T96 34ZM275 325Q277 323
275 320T267 316Q242 324 213 337T164 363Q158 365 164 371Q173 379 187 383T204 385Q218 371 237 355T275 325Z" />
<glyph unicode="&#xe1;" glyph-name="aacute" horiz-adv-x="294" d="M270 63Q272 65 275 63T277 57Q256 28 236 14T201 0Q192 0 187 9T180 33T180 68T189 109Q162 67 132 37T74 0Q56 0 44 17T31 72Q31 105 44 137T81 196T134 239T197 255Q215 255 228 251T252
239Q258 244 268 248T288 253Q293 253 291 248Q268 220 252 186T226 120T215 64T218 30Q223 23 236 29T270 63ZM96 34Q107 34 124 49T161 90T198 146T231 210Q227 223 213 231T179 239Q157 239 138 228T103 196T79 147T70 85Q70 63 77 49T96 34ZM246 381Q251 384
264 380T287 372Q294 368 288 362Q279 356 265 349T236 336T206 324T177 314Q173 314 173 317T177 325Q190 333 211 348T246 381Z" />
<glyph unicode="&#xe2;" glyph-name="acircumflex" horiz-adv-x="294" d="M270 63Q272 65 275 63T277 57Q256 28 236 14T201 0Q192 0 187 9T180 33T180 68T189 109Q162 67 132 37T74 0Q56 0 44 17T31 72Q31 105 44 137T81 196T134 239T197 255Q215 255 228 251T252
239Q258 244 268 248T288 253Q293 253 291 248Q268 220 252 186T226 120T215 64T218 30Q223 23 236 29T270 63ZM96 34Q107 34 124 49T161 90T198 146T231 210Q227 223 213 231T179 239Q157 239 138 228T103 196T79 147T70 85Q70 63 77 49T96 34ZM213 393Q219 398
225 392Q236 378 254 363T292 340Q297 335 287 330T265 327Q247 334 235 341T207 361Q195 353 179 343T146 325Q135 325 140 334Q157 344 177 358T213 393Z" />
<glyph unicode="&#xe3;" glyph-name="atilde" horiz-adv-x="294" d="M270 63Q272 65 275 63T277 57Q256 28 236 14T201 0Q192 0 187 9T180 33T180 68T189 109Q162 67 132 37T74 0Q56 0 44 17T31 72Q31 105 44 137T81 196T134 239T197 255Q215 255 228 251T252
239Q258 244 268 248T288 253Q293 253 291 248Q268 220 252 186T226 120T215 64T218 30Q223 23 236 29T270 63ZM96 34Q107 34 124 49T161 90T198 146T231 210Q227 223 213 231T179 239Q157 239 138 228T103 196T79 147T70 85Q70 63 77 49T96 34ZM120 332Q132 346
145 356T169 370Q177 372 184 369T200 362T220 353T246 349Q261 349 271 356T291 377Q294 379 297 378T300 373Q289 355 273 343T229 330Q216 330 207 333T190 340T176 347T163 350Q155 349 148 343T129 326Q118 324 120 332Z" />
<glyph unicode="&#xe4;" glyph-name="adieresis" horiz-adv-x="284" d="M270 63Q272 65 275 63T277 57Q256 28 236 14T201 0Q192 0 187 9T180 33T180 68T189 109Q162 67 132 37T74 0Q56 0 44 17T31 72Q31 105 44 137T81 196T134 239T197 255Q215 255 228 251T252
239Q258 244 268 248T288 253Q293 253 291 248Q268 220 252 186T226 120T215 64T218 30Q223 23 236 29T270 63ZM96 34Q107 34 124 49T161 90T198 146T231 210Q227 223 213 231T179 239Q157 239 138 228T103 196T79 147T70 85Q70 63 77 49T96 34ZM160 319Q147 319
147 338Q147 349 158 364T187 379Q197 379 197 365Q197 350 186 335T160 319ZM245 319Q232 319 232 338Q232 349 243 364T271 379Q281 379 281 365Q281 350 270 335T245 319Z" />
<glyph unicode="&#xe5;" glyph-name="aring" horiz-adv-x="294" d="M270 63Q272 65 275 63T277 57Q256 28 236 14T201 0Q192 0 187 9T180 33T180 68T189 109Q162 67 132 37T74 0Q56 0 44 17T31 72Q31 105 44 137T81 196T134 239T197 255Q215 255 228 251T252 239Q258
244 268 248T288 253Q293 253 291 248Q268 220 252 186T226 120T215 64T218 30Q223 23 236 29T270 63ZM96 34Q107 34 124 49T161 90T198 146T231 210Q227 223 213 231T179 239Q157 239 138 228T103 196T79 147T70 85Q70 63 77 49T96 34ZM213 375Q201 375 195 367T188
345Q188 334 193 328T210 321Q221 321 228 329T235 351Q235 375 213 375ZM200 310Q187 310 180 318T173 338Q173 358 187 372T223 387Q237 387 243 379T250 358Q250 339 236 325T200 310Z" />
<glyph unicode="&#xe6;" glyph-name="ae" horiz-adv-x="363" d="M363 211Q363 197 352 185T322 164T279 146T227 131Q224 110 224 85Q224 60 235 43T267 26Q287 26 304 36T335 63Q339 65 341 62T342 55Q325 32 300 16T246 -1Q219 -1 203 16T187 66Q187 104 202
142Q192 120 177 97T145 55T110 20T75 0Q54 0 43 16T31 69Q31 100 43 133T76 193T125 238T187 256Q218 256 233 239Q240 245 250 254T269 263Q275 263 273 259Q266 250 260 240T247 217Q263 234 280 244T318 255Q337 255 350 242T363 211ZM91 37Q103 37 120 51T155
88T189 142T217 206Q212 219 200 229T171 239Q149 239 130 227T97 193T74 144T66 85Q66 63 72 50T91 37ZM297 229Q274 229 256 209T229 146Q277 153 300 166T323 197Q323 211 316 220T297 229Z" />
<glyph unicode="&#xe7;" glyph-name="ccedilla" horiz-adv-x="203" d="M179 78Q182 80 185 78T186 70Q170 50 152 35T115 8Q101 0 97 -12T96 -36Q106 -61 91 -88T36 -132Q33 -132 33 -128T34 -121Q62 -107 71 -91T73 -54Q68 -39 74 -23T97 2Q87 0 81 0Q59 0 45
15T30 59Q30 94 41 129T71 193T113 238T163 256Q183 256 195 246T208 222Q208 217 205 210T197 196T187 184T178 176Q172 174 172 181Q180 201 173 216T142 231Q126 231 113 220T89 188T72 140T66 80Q66 30 100 30Q120 30 139 42T179 78Z" />
<glyph unicode="&#xe8;" glyph-name="egrave" horiz-adv-x="206" d="M206 212Q206 198 195 186T165 165T122 147T70 132Q69 121 69 110T68 86Q68 61 79 44T110 27Q130 27 147 37T179 64Q183 66 185 63T185 56Q168 33 143 17T89 0Q63 0 47 17T30 67Q30 97 41 130T70
192T111 238T161 256Q180 256 193 243T206 212ZM140 230Q117 230 99 210T73 147Q121 154 143 167T166 198Q166 212 159 221T140 230ZM229 325Q231 323 229 320T221 316Q196 324 167 337T118 363Q112 365 118 371Q127 379 141 383T158 385Q172 371 191 355T229 325Z"
/>
<glyph unicode="&#xe9;" glyph-name="eacute" horiz-adv-x="206" d="M206 212Q206 198 195 186T165 165T122 147T70 132Q69 121 69 110T68 86Q68 61 79 44T110 27Q130 27 147 37T179 64Q183 66 185 63T185 56Q168 33 143 17T89 0Q63 0 47 17T30 67Q30 97 41 130T70
192T111 238T161 256Q180 256 193 243T206 212ZM140 230Q117 230 99 210T73 147Q121 154 143 167T166 198Q166 212 159 221T140 230ZM203 381Q208 384 221 380T244 372Q251 368 245 362Q236 356 222 349T193 336T163 324T134 314Q130 314 130 317T134 325Q147 333
168 348T203 381Z" />
<glyph unicode="&#xea;" glyph-name="ecircumflex" horiz-adv-x="206" d="M206 212Q206 198 195 186T165 165T122 147T70 132Q69 121 69 110T68 86Q68 61 79 44T110 27Q130 27 147 37T179 64Q183 66 185 63T185 56Q168 33 143 17T89 0Q63 0 47 17T30 67Q30 97
41 130T70 192T111 238T161 256Q180 256 193 243T206 212ZM140 230Q117 230 99 210T73 147Q121 154 143 167T166 198Q166 212 159 221T140 230ZM157 393Q163 398 169 392Q180 378 198 363T236 340Q241 335 231 330T209 327Q191 334 179 341T151 361Q139 353 123
343T90 325Q79 325 84 334Q101 344 121 358T157 393Z" />
<glyph unicode="&#xeb;" glyph-name="edieresis" horiz-adv-x="206" d="M206 212Q206 198 195 186T165 165T122 147T70 132Q69 121 69 110T68 86Q68 61 79 44T110 27Q130 27 147 37T179 64Q183 66 185 63T185 56Q168 33 143 17T89 0Q63 0 47 17T30 67Q30 97 41
130T70 192T111 238T161 256Q180 256 193 243T206 212ZM140 230Q117 230 99 210T73 147Q121 154 143 167T166 198Q166 212 159 221T140 230ZM122 319Q109 319 109 338Q109 349 120 364T149 379Q159 379 159 365Q159 350 148 335T122 319ZM207 319Q194 319 194 338Q194
349 205 364T233 379Q243 379 243 365Q243 350 232 335T207 319Z" />
<glyph unicode="&#xec;" glyph-name="igrave" horiz-adv-x="149" d="M52 186Q49 184 47 187T46 194Q60 208 84 226T132 256Q140 256 140 247Q127 224 115 197T93 144T77 93T71 52Q71 31 85 31Q96 31 106 40T131 66Q133 68 136 65T137 58Q119 36 99 18T60 0Q34
0 34 33Q34 52 40 78T57 132T79 184T104 227Q93 219 77 207T52 186ZM189 325Q191 323 189 320T181 316Q156 324 127 337T78 363Q72 365 78 371Q87 379 101 383T118 385Q132 371 151 355T189 325Z" />
<glyph unicode="&#xed;" glyph-name="iacute" horiz-adv-x="149" d="M52 186Q49 184 47 187T46 194Q60 208 84 226T132 256Q140 256 140 247Q127 224 115 197T93 144T77 93T71 52Q71 31 85 31Q96 31 106 40T131 66Q133 68 136 65T137 58Q119 36 99 18T60 0Q34
0 34 33Q34 52 40 78T57 132T79 184T104 227Q93 219 77 207T52 186ZM179 381Q184 384 197 380T220 372Q227 368 221 362Q212 356 198 349T169 336T139 324T110 314Q106 314 106 317T110 325Q123 333 144 348T179 381Z" />
<glyph unicode="&#xee;" glyph-name="icircumflex" horiz-adv-x="149" d="M52 186Q49 184 47 187T46 194Q60 208 84 226T132 256Q140 256 140 247Q127 224 115 197T93 144T77 93T71 52Q71 31 85 31Q96 31 106 40T131 66Q133 68 136 65T137 58Q119 36 99 18T60
0Q34 0 34 33Q34 52 40 78T57 132T79 184T104 227Q93 219 77 207T52 186ZM133 393Q139 398 145 392Q156 378 174 363T212 340Q217 335 207 330T185 327Q167 334 155 341T127 361Q115 353 99 343T66 325Q55 325 60 334Q77 344 97 358T133 393Z" />
<glyph unicode="&#xef;" glyph-name="idieresis" horiz-adv-x="149" d="M52 186Q49 184 47 187T46 194Q60 208 84 226T132 256Q140 256 140 247Q127 224 115 197T93 144T77 93T71 52Q71 31 85 31Q96 31 106 40T131 66Q133 68 136 65T137 58Q119 36 99 18T60 0Q34
0 34 33Q34 52 40 78T57 132T79 184T104 227Q93 219 77 207T52 186ZM101 319Q88 319 88 338Q88 349 99 364T128 379Q138 379 138 365Q138 350 127 335T101 319ZM186 319Q173 319 173 338Q173 349 184 364T212 379Q222 379 222 365Q222 350 211 335T186 319Z" />
<glyph unicode="&#xf0;" glyph-name="eth" horiz-adv-x="234" d="M148 471Q187 405 205 343T223 210Q223 171 210 134T177 68T133 20T85 0Q59 0 46 19T33 67Q33 108 47 146T84 212T136 251T195 249Q189 305 172 353T122 452Q80 422 45 390Q40 390 42 398T52 417Q63
426 79 438T114 463Q104 477 93 492T69 522Q39 558 42 600T83 674Q87 675 89 672T89 664Q48 612 96 548Q109 531 120 515T142 482Q158 492 173 501T204 519Q206 519 207 516T204 508Q190 500 176 491T148 471ZM107 34Q122 34 138 46T167 80T188 129T197 187Q197
215 188 227T161 240Q120 240 94 200T68 92Q68 69 77 52T107 34Z" />
<glyph unicode="&#xf1;" glyph-name="ntilde" horiz-adv-x="291" d="M282 64Q285 66 288 64T290 58Q273 35 253 18T214 0Q183 0 183 40Q183 74 195 115T228 199Q232 206 232 213Q232 224 222 224Q185 224 141 173T58 13Q56 7 47 4T30 0Q19 0 22 9Q39 52 57 106T90
213Q94 232 83 232Q73 232 63 222T42 196Q40 194 38 197T36 203Q47 220 66 238T107 256Q132 256 124 222Q120 200 113 176T98 127Q112 154 131 178T170 219T211 246T250 256Q262 256 268 250T275 236Q275 223 269 210Q248 172 234 131T219 54Q219 29 235 29Q256
29 282 64ZM120 332Q132 346 145 356T169 370Q177 372 184 369T200 362T220 353T246 349Q261 349 271 356T291 377Q294 379 297 378T300 373Q289 355 273 343T229 330Q216 330 207 333T190 340T176 347T163 350Q155 349 148 343T129 326Q118 324 120 332Z" />
<glyph unicode="&#xf2;" glyph-name="ograve" horiz-adv-x="225" d="M162 256Q189 256 202 238T215 191Q215 157 202 123T169 62T126 17T82 0Q58 0 44 19T30 73Q30 101 41 133T70 192T112 238T162 256ZM102 31Q117 31 131 41T157 69T174 110T181 158Q181 188 171
205T138 223Q123 223 109 213T85 185T68 144T62 94Q62 31 102 31ZM244 325Q246 323 244 320T236 316Q211 324 182 337T133 363Q127 365 133 371Q142 379 156 383T173 385Q187 371 206 355T244 325Z" />
<glyph unicode="&#xf3;" glyph-name="oacute" horiz-adv-x="225" d="M162 256Q189 256 202 238T215 191Q215 157 202 123T169 62T126 17T82 0Q58 0 44 19T30 73Q30 101 41 133T70 192T112 238T162 256ZM102 31Q117 31 131 41T157 69T174 110T181 158Q181 188 171
205T138 223Q123 223 109 213T85 185T68 144T62 94Q62 31 102 31ZM209 381Q214 384 227 380T250 372Q257 368 251 362Q242 356 228 349T199 336T169 324T140 314Q136 314 136 317T140 325Q153 333 174 348T209 381Z" />
<glyph unicode="&#xf4;" glyph-name="ocircumflex" horiz-adv-x="225" d="M162 256Q189 256 202 238T215 191Q215 157 202 123T169 62T126 17T82 0Q58 0 44 19T30 73Q30 101 41 133T70 192T112 238T162 256ZM102 31Q117 31 131 41T157 69T174 110T181 158Q181
188 171 205T138 223Q123 223 109 213T85 185T68 144T62 94Q62 31 102 31ZM186 393Q192 398 198 392Q209 378 227 363T265 340Q270 335 260 330T238 327Q220 334 208 341T180 361Q168 353 152 343T119 325Q108 325 113 334Q130 344 150 358T186 393Z" />
<glyph unicode="&#xf5;" glyph-name="otilde" horiz-adv-x="225" d="M162 256Q189 256 202 238T215 191Q215 157 202 123T169 62T126 17T82 0Q58 0 44 19T30 73Q30 101 41 133T70 192T112 238T162 256ZM102 31Q117 31 131 41T157 69T174 110T181 158Q181 188 171
205T138 223Q123 223 109 213T85 185T68 144T62 94Q62 31 102 31ZM92 332Q104 346 117 356T141 370Q149 372 156 369T172 362T192 353T218 349Q233 349 243 356T263 377Q266 379 269 378T272 373Q261 355 245 343T201 330Q188 330 179 333T162 340T148 347T135
350Q127 349 120 343T101 326Q90 324 92 332Z" />
<glyph unicode="&#xf6;" glyph-name="odieresis" horiz-adv-x="225" d="M162 256Q189 256 202 238T215 191Q215 157 202 123T169 62T126 17T82 0Q58 0 44 19T30 73Q30 101 41 133T70 192T112 238T162 256ZM102 31Q117 31 131 41T157 69T174 110T181 158Q181 188
171 205T138 223Q123 223 109 213T85 185T68 144T62 94Q62 31 102 31ZM122 319Q109 319 109 338Q109 349 120 364T149 379Q159 379 159 365Q159 350 148 335T122 319ZM207 319Q194 319 194 338Q194 349 205 364T233 379Q243 379 243 365Q243 350 232 335T207 319Z"
/>
<glyph unicode="&#xf7;" glyph-name="divide" horiz-adv-x="301" d="M84 155Q99 155 121 155T168 156T219 156T269 155Q277 153 270 145T252 135Q206 135 155 135T56 133Q50 135 55 143T84 155ZM203 207Q203 199 196 192T183 185Q178 185 173 191T167 203Q167
210 173 217T186 225Q192 225 197 219T203 207ZM161 86Q161 78 154 71T141 64Q136 64 131 70T125 82Q125 89 131 97T145 105Q150 105 155 98T161 86Z" />
<glyph unicode="&#xf8;" glyph-name="oslash" horiz-adv-x="225" d="M226 285Q232 290 238 289T241 280Q231 266 222 255T205 233Q215 217 215 191Q215 157 202 123T169 62T126 17T82 0Q61 0 48 15Q43 7 38 -1T26 -17Q20 -24 14 -22T10 -14Q18 -2 25 8T39 28Q30
44 30 73Q30 101 41 133T70 192T112 238T162 256Q182 256 195 245Q209 262 226 285ZM63 94Q63 86 63 79T65 65Q79 85 90 101T113 133T138 167T169 209Q158 223 139 223Q124 223 110 213T86 185T69 144T63 94ZM181 158Q181 177 176 194Q161 174 148 157T123 123T99
88T71 49Q81 31 102 31Q118 31 132 41T157 69T174 110T181 158Z" />
<glyph unicode="&#xf9;" glyph-name="ugrave" horiz-adv-x="299" d="M65 0Q52 0 42 12T32 45Q32 61 36 82T48 128T67 176T92 221Q81 213 69 204T49 186Q46 184 44 187T43 194Q50 201 61 210T84 228T110 245T136 260Q140 261 142 258T144 251Q112 210 93 161T73
66Q73 37 90 37Q103 37 122 54T163 100T205 165T245 238Q248 245 256 250T275 256Q288 256 284 248Q270 222 259 200T241 155T231 110T227 60Q227 28 245 28Q253 28 263 36T283 59Q286 61 289 59T290 52Q276 31 258 16T222 0Q209 0 200 13T191 48Q191 72 195 99T210
155Q191 118 170 90T130 41T93 11T65 0ZM280 325Q282 323 280 320T272 316Q247 324 218 337T169 363Q163 365 169 371Q178 379 192 383T209 385Q223 371 242 355T280 325Z" />
<glyph unicode="&#xfa;" glyph-name="uacute" horiz-adv-x="299" d="M65 0Q52 0 42 12T32 45Q32 61 36 82T48 128T67 176T92 221Q81 213 69 204T49 186Q46 184 44 187T43 194Q50 201 61 210T84 228T110 245T136 260Q140 261 142 258T144 251Q112 210 93 161T73
66Q73 37 90 37Q103 37 122 54T163 100T205 165T245 238Q248 245 256 250T275 256Q288 256 284 248Q270 222 259 200T241 155T231 110T227 60Q227 28 245 28Q253 28 263 36T283 59Q286 61 289 59T290 52Q276 31 258 16T222 0Q209 0 200 13T191 48Q191 72 195 99T210
155Q191 118 170 90T130 41T93 11T65 0ZM255 381Q260 384 273 380T296 372Q303 368 297 362Q288 356 274 349T245 336T215 324T186 314Q182 314 182 317T186 325Q199 333 220 348T255 381Z" />
<glyph unicode="&#xfb;" glyph-name="ucircumflex" horiz-adv-x="299" d="M65 0Q52 0 42 12T32 45Q32 61 36 82T48 128T67 176T92 221Q81 213 69 204T49 186Q46 184 44 187T43 194Q50 201 61 210T84 228T110 245T136 260Q140 261 142 258T144 251Q112 210 93 161T73
66Q73 37 90 37Q103 37 122 54T163 100T205 165T245 238Q248 245 256 250T275 256Q288 256 284 248Q270 222 259 200T241 155T231 110T227 60Q227 28 245 28Q253 28 263 36T283 59Q286 61 289 59T290 52Q276 31 258 16T222 0Q209 0 200 13T191 48Q191 72 195 99T210
155Q191 118 170 90T130 41T93 11T65 0ZM217 393Q223 398 229 392Q240 378 258 363T296 340Q301 335 291 330T269 327Q251 334 239 341T211 361Q199 353 183 343T150 325Q139 325 144 334Q161 344 181 358T217 393Z" />
<glyph unicode="&#xfc;" glyph-name="udieresis" horiz-adv-x="299" d="M65 0Q52 0 42 12T32 45Q32 61 36 82T48 128T67 176T92 221Q81 213 69 204T49 186Q46 184 44 187T43 194Q50 201 61 210T84 228T110 245T136 260Q140 261 142 258T144 251Q112 210 93 161T73
66Q73 37 90 37Q103 37 122 54T163 100T205 165T245 238Q248 245 256 250T275 256Q288 256 284 248Q270 222 259 200T241 155T231 110T227 60Q227 28 245 28Q253 28 263 36T283 59Q286 61 289 59T290 52Q276 31 258 16T222 0Q209 0 200 13T191 48Q191 72 195 99T210
155Q191 118 170 90T130 41T93 11T65 0ZM164 319Q151 319 151 338Q151 349 162 364T191 379Q201 379 201 365Q201 350 190 335T164 319ZM249 319Q236 319 236 338Q236 349 247 364T275 379Q285 379 285 365Q285 350 274 335T249 319Z" />
<glyph unicode="&#xfd;" glyph-name="yacute" horiz-adv-x="280" d="M261 381Q266 384 279 380T302 372Q309 368 303 362Q294 356 280 349T251 336T221 324T192 314Q188 314 188 317T192 325Q205 333 226 348T261 381ZM243 232Q244 235 248 238T257 246T268 252T277
255Q286 255 284 248Q262 186 241 128T196 6Q169 -64 139 -111T75 -188T5 -231T-69 -244Q-122 -244 -149 -218T-177 -152Q-177 -134 -168 -114T-138 -79Q-135 -77 -133 -81T-132 -87Q-148 -106 -148 -130Q-148 -172 -124 -198T-51 -224Q-16 -224 13 -213T69 -174T120
-99T171 19Q182 52 192 80T214 138Q176 78 135 40T61 -1Q48 -1 42 11T36 44Q36 62 40 83T51 128T70 174T96 220Q85 212 73 203T53 185Q50 183 48 186T47 193Q61 207 85 225T132 255Q142 255 140 246Q125 226 113 202T91 153T77 104T72 61Q72 33 91 33Q107 33 129
54T174 106T215 171T243 232Z" />
<glyph unicode="&#xfe;" glyph-name="thorn" horiz-adv-x="261" d="M207 255Q227 255 239 237T251 191Q251 152 238 118T201 57T145 15T75 -1Q58 -1 47 6Q30 -44 16 -100T2 -206Q2 -228 24 -225Q41 -222 54 -213Q58 -212 58 -216T57 -224Q45 -231 24 -238T-16
-245Q-34 -245 -34 -229Q-34 -187 -17 -121T26 25Q21 34 18 42Q17 46 22 47T35 52Q53 102 72 154T112 255T151 350T188 434Q194 448 191 453T181 455Q174 451 166 444T149 427Q146 426 144 429T143 435Q149 442 158 451T179 468T200 482T218 488Q226 488 229 480T226
458Q198 393 166 316T104 167Q132 209 159 232T207 255ZM100 19Q125 19 146 30T183 60T207 106T216 165Q216 189 207 204T181 220Q158 220 126 179T67 63Q65 58 64 53T60 43Q65 32 74 26T100 19Z" />
<glyph unicode="&#xff;" glyph-name="ydieresis" horiz-adv-x="280" d="M162 319Q149 319 149 338Q149 349 160 364T189 379Q199 379 199 365Q199 350 188 335T162 319ZM247 319Q234 319 234 338Q234 349 245 364T273 379Q283 379 283 365Q283 350 272 335T247
319ZM243 232Q244 235 248 238T257 246T268 252T277 255Q286 255 284 248Q262 186 241 128T196 6Q169 -64 139 -111T75 -188T5 -231T-69 -244Q-122 -244 -149 -218T-177 -152Q-177 -134 -168 -114T-138 -79Q-135 -77 -133 -81T-132 -87Q-148 -106 -148 -130Q-148
-172 -124 -198T-51 -224Q-16 -224 13 -213T69 -174T120 -99T171 19Q182 52 192 80T214 138Q176 78 135 40T61 -1Q48 -1 42 11T36 44Q36 62 40 83T51 128T70 174T96 220Q85 212 73 203T53 185Q50 183 48 186T47 193Q61 207 85 225T132 255Q142 255 140 246Q125
226 113 202T91 153T77 104T72 61Q72 33 91 33Q107 33 129 54T174 106T215 171T243 232Z" />
<glyph unicode="&#x2013;" glyph-name="endash" horiz-adv-x="500" d="M33 161Q49 162 84 163T162 164T254 165T346 165T425 165T477 165Q481 163 480 160T475 154T465 148T454 145Q428 146 392 146T315 147T230 148T147 149T75 148T23 146Q20 147 21 153T33 161Z" />
<glyph unicode="&#x2014;" glyph-name="emdash" horiz-adv-x="1000" d="M33 161Q45 162 89 163T198 164T342 165T504 165T665 165T810 165T919 165T977 165Q981 163 980 160T975 154T965 148T954 145Q935 146 888 146T777 147T635 148T479 148T325 149T187 148T81
148T23 146Q20 147 21 153T33 161Z" />
<glyph unicode="&#x2018;" glyph-name="quoteleft" horiz-adv-x="87" d="M67 260Q62 262 59 272T55 295Q55 326 78 359T137 414Q141 414 142 411T140 403Q118 389 104 368T90 324Q90 303 100 297Q103 294 100 288T90 276T78 265T67 260Z" />
<glyph unicode="&#x2019;" glyph-name="quoteright" horiz-adv-x="87" d="M125 414Q130 412 133 402T137 379Q137 348 114 315T55 260Q51 260 50 263T52 271Q74 285 88 306T102 350Q102 371 92 377Q89 380 92 386T102 398T114 409T125 414Z" />
<glyph unicode="&#x201a;" glyph-name="quotesinglbase" horiz-adv-x="112" d="M75 66Q80 64 83 54T87 31Q87 0 64 -33T5 -88Q1 -88 0 -85T2 -77Q24 -63 38 -42T52 2Q52 23 42 29Q39 32 42 38T52 50T64 61T75 66Z" />
<glyph unicode="&#x201c;" glyph-name="quotedblleft" horiz-adv-x="167" d="M147 260Q142 262 139 272T135 295Q135 326 158 359T217 414Q221 414 222 411T220 403Q198 389 184 368T170 324Q170 303 180 297Q183 294 180 288T170 276T158 265T147 260ZM67 260Q62
262 59 272T55 295Q55 326 78 359T137 414Q141 414 142 411T140 403Q118 389 104 368T90 324Q90 303 100 297Q103 294 100 288T90 276T78 265T67 260Z" />
<glyph unicode="&#x201d;" glyph-name="quotedblright" horiz-adv-x="167" d="M125 414Q130 412 133 402T137 379Q137 348 114 315T55 260Q51 260 50 263T52 271Q74 285 88 306T102 350Q102 371 92 377Q89 380 92 386T102 398T114 409T125 414ZM205 414Q210 412
213 402T217 379Q217 348 194 315T135 260Q131 260 130 263T132 271Q154 285 168 306T182 350Q182 371 172 377Q169 380 172 386T182 398T194 409T205 414Z" />
<glyph unicode="&#x201e;" glyph-name="quotedblbase" horiz-adv-x="192" d="M75 66Q80 64 83 54T87 31Q87 0 64 -33T5 -88Q1 -88 0 -85T2 -77Q24 -63 38 -42T52 2Q52 23 42 29Q39 32 42 38T52 50T64 61T75 66ZM155 66Q160 64 163 54T167 31Q167 0 144 -33T85
-88Q81 -88 80 -85T82 -77Q104 -63 118 -42T132 2Q132 23 122 29Q119 32 122 38T132 50T144 61T155 66Z" />
<glyph unicode="&#x2022;" glyph-name="bullet" horiz-adv-x="207" d="M100 91Q77 91 66 104T55 139Q55 165 74 186T126 207Q146 207 159 195T172 162Q172 133 152 112T100 91Z" />
<glyph unicode="&#x2039;" glyph-name="guilsinglleft" horiz-adv-x="189" d="M191 251Q198 253 200 246T194 233Q180 224 161 209T121 179T83 148T55 123Q76 106 99 82T136 38Q137 34 136 27T132 14T125 5T114 3Q95 32 70 59T23 104Q14 112 25 121Q63 155 106
189T191 251Z" />
<glyph unicode="&#x203a;" glyph-name="guilsinglright" horiz-adv-x="176" d="M-11 3Q-17 1 -20 7T-15 22Q-3 33 14 47T51 77T88 107T120 132Q109 140 98 152T75 178T54 206T37 231Q35 235 39 240T49 248T61 253T71 251Q86 223 108 195T153 150Q156 147 156 142T151
133Q110 105 66 70T-11 3Z" />
</font>
</defs>
</svg>
