<?xml version="1.0" standalone="no"?>
<!DOCTYPE svg PUBLIC "-//W3C//DTD SVG 1.1//EN" "http://www.w3.org/Graphics/SVG/1.1/DTD/svg11.dtd">
<svg xmlns="http://www.w3.org/2000/svg">
<defs >
<font id="Tangerine" horiz-adv-x="240" ><font-face
    font-family="Tangerine"
    units-per-em="1000"
    panose-1="2 0 0 0 0 0 0 0 0 0"
    ascent="750"
    descent="-250"
    alphabetic="0" />
<glyph unicode=" " glyph-name="space" horiz-adv-x="150" />
<glyph unicode="!" glyph-name="exclam" horiz-adv-x="200" d="M74 0Q65 0 60 5T55 24Q55 30 59 38T70 53T86 66T104 71Q110 71 115 67T120 55Q120 47 116 37T105 19T90 6T74 0ZM329 524Q309 483 282 428T228 318T176 212T137 131Q129 122 123 124T120 138Q132
165 149 210T184 305T218 406T244 494Q251 505 268 516T301 535T326 541T329 524Z" />
<glyph unicode="&quot;" glyph-name="quotedbl" horiz-adv-x="212" d="M110 394Q119 405 158 405Q166 405 169 402T171 396Q162 386 148 370T117 335T86 299T60 270Q55 268 52 270T51 278Q55 287 63 302T79 334T96 367T110 394ZM204 394Q213 405 252 405Q260 405
263 402T265 396Q256 386 242 370T211 335T180 299T154 270Q149 268 146 270T145 278Q149 287 157 302T173 334T190 367T204 394Z" />
<glyph unicode="#" glyph-name="numbersign" horiz-adv-x="297" d="M309 243Q312 242 311 238T307 230T298 221T289 214Q277 215 264 215T237 216Q226 197 216 178T197 140Q213 140 227 140T256 139Q259 138 258 134T254 125T245 115T235 108Q223 109 210 109T183
110Q172 84 162 60T143 11Q139 0 133 0Q127 0 129 7Q135 27 144 54T164 110Q145 110 127 110T91 108Q71 57 58 11Q54 0 48 0Q42 0 44 7Q49 27 56 52T73 106Q58 105 44 104T18 99Q13 100 14 105T19 116T31 127T44 134L83 137Q90 156 97 175T112 213Q97 211 84 210T60
206Q55 207 56 212T62 222T73 233T86 239Q104 242 125 242Q136 265 149 288Q153 295 161 303T177 316T190 321T195 313Q184 296 174 279T155 244Q172 245 189 245T223 245Q236 270 247 286Q251 293 260 302T278 317T292 324T297 316Q286 298 275 281T253 245Q268
245 282 245T309 243ZM104 138Q122 139 140 139T176 140Q191 178 208 216Q191 216 174 216T139 214Q129 195 121 176T104 138Z" />
<glyph unicode="$" glyph-name="dollar" horiz-adv-x="287" d="M224 312Q246 309 261 300T277 283Q277 269 272 252T259 224Q257 222 253 223T249 230Q255 249 249 267Q241 287 216 294Q204 268 193 244T171 194Q180 183 190 173T209 152T224 126T230 94Q230 76
222 60T196 30T154 8T96 0H90Q84 -15 78 -30T66 -62Q60 -71 54 -71T48 -63Q55 -46 61 -30T75 1Q46 5 28 17T10 42Q10 48 14 57T24 75T37 94T53 111Q57 112 60 109T61 101Q52 93 50 80T49 56Q54 31 83 21Q98 58 112 91T140 158Q125 175 113 192T101 233Q101 265
128 288T207 313Q220 344 237 379Q242 386 248 385T252 375Q245 359 238 343T224 312ZM182 77Q182 100 173 116T151 147Q137 115 124 83T97 18Q100 17 107 17Q142 17 162 33T182 77ZM149 248Q149 236 152 226T161 208Q170 228 179 249T200 295Q175 294 162 282T149
248Z" />
<glyph unicode="%" glyph-name="percent" horiz-adv-x="431" d="M116 284Q89 284 75 263T61 211Q61 186 73 170T105 154Q131 154 145 175T160 228Q160 251 148 267T116 284ZM78 123Q54 123 37 139T20 184Q20 207 30 230T57 271T97 301T144 313Q170 313 186 296T202
253Q202 231 191 208T163 166T123 135T78 123ZM324 160Q297 160 283 140T269 88Q269 62 281 47T314 31Q340 31 354 51T369 105Q369 128 357 144T324 160ZM287 0Q262 0 246 16T229 61Q229 84 239 107T266 148T305 178T353 190Q379 190 395 173T411 130Q411 108 400
85T372 43T332 12T287 0ZM386 367Q305 262 224 151T74 -64Q66 -72 57 -70T51 -59Q90 -4 126 48T200 152T277 258T363 374Q369 379 379 377T386 367Z" />
<glyph unicode="&amp;" glyph-name="ampersand" horiz-adv-x="524" d="M466 256Q491 256 505 238T519 196Q519 191 515 189T507 191Q499 202 486 209T453 216Q429 216 411 205T377 175T345 135T312 90Q338 67 371 54T442 40Q462 40 475 47T498 66Q501 71 506 69T507
58Q494 32 469 16T405 0Q367 0 335 13T276 51Q251 28 219 14T140 0Q85 0 53 27T20 102Q20 135 33 158T67 198T114 229T168 256Q164 277 162 297T160 337Q160 361 169 386T193 430T229 462T272 475Q302 475 316 458T331 413Q331 384 321 363T295 324T257 292T213
265Q224 217 246 174T301 99Q321 124 339 151T376 202T416 241T466 256ZM200 367Q200 324 209 279Q241 299 262 326T284 399Q284 420 275 434T246 449Q223 449 212 431T200 367ZM76 124Q76 79 100 54T176 29Q203 29 224 38T265 62Q230 97 207 144T171 242Q152 231
135 219T104 193T84 162T76 124Z" />
<glyph unicode="&apos;" glyph-name="quotesingle" horiz-adv-x="118" d="M110 394Q119 405 158 405Q166 405 169 402T171 396Q162 386 148 370T117 335T86 299T60 270Q55 268 52 270T51 278Q55 287 63 302T79 334T96 367T110 394Z" />
<glyph unicode="(" glyph-name="parenleft" horiz-adv-x="260" d="M328 637Q334 641 339 639T339 628Q319 609 296 579T254 517Q228 473 207 416T170 297T147 172T138 52Q138 36 139 17T142 -22T149 -60T158 -93Q159 -101 153 -103T143 -100Q128 -66 116 -22T98
72T94 178T110 289Q136 399 192 485T328 637Z" />
<glyph unicode=")" glyph-name="parenright" horiz-adv-x="285" d="M41 -102Q34 -106 29 -104T29 -93Q49 -73 72 -43T114 19Q140 63 161 119T198 238T221 363T230 483Q230 499 229 518T226 557T219 595T210 628Q209 637 215 639T226 635Q242 598 254 553T271 457T274
352T258 246Q233 140 176 52T41 -102Z" />
<glyph unicode="*" glyph-name="asterisk" horiz-adv-x="192" d="M200 326Q189 325 176 325T152 323Q139 322 125 321L145 301Q153 293 162 284T178 269Q182 265 178 260T167 251T154 246T145 249Q141 257 137 268T127 290Q122 301 116 314Q108 301 101 289Q95
278 89 268T78 249Q75 244 69 244T56 248T46 256T45 264Q53 272 64 282T85 301Q96 312 108 322Q96 323 85 324Q75 325 65 325T46 326Q41 326 42 332T48 345T59 356T69 359Q75 355 82 351T97 342Q105 337 113 332Q114 344 116 356Q118 366 118 377T121 398Q122 404
129 408T146 414T161 415T165 409Q160 398 153 386T140 361L126 333Q141 339 155 345Q167 350 180 355T204 365Q209 367 210 361T211 348T207 333T200 326Z" />
<glyph unicode="+" glyph-name="plus" horiz-adv-x="301" d="M269 156Q273 156 273 153T269 145T261 138T250 133H169Q161 111 154 91T140 50Q138 44 133 40T123 34T113 33T109 39Q116 63 123 86T138 133Q117 133 96 133T55 131Q48 133 54 143T84 157Q96 158 112
158T147 158Q155 180 162 201T178 243Q179 247 184 250T196 255T206 256T211 251Q202 226 194 203T177 158Q200 157 223 157T269 156Z" />
<glyph unicode="," glyph-name="comma" horiz-adv-x="122" d="M84 70Q89 68 93 58T97 35Q97 2 72 -31T7 -88Q3 -88 2 -85T5 -77Q26 -64 39 -44T53 -1Q53 21 42 26Q39 29 42 36T53 51T68 64T84 70Z" />
<glyph unicode="-" glyph-name="hyphen" horiz-adv-x="245" d="M58 166Q71 167 92 169T136 172T181 175T220 176Q224 174 224 169T220 157T210 144T196 136Q178 136 157 136T114 135T72 134T39 133Q32 135 38 148T58 166Z" />
<glyph unicode="." glyph-name="period" horiz-adv-x="120" d="M50 0Q41 0 36 5T30 24Q30 30 34 38T45 53T61 66T79 71Q85 71 90 67T95 55Q95 47 91 37T80 19T65 6T50 0Z" />
<glyph unicode="/" glyph-name="slash" horiz-adv-x="214" d="M383 625Q360 588 329 535T261 420T188 293T116 166T52 52T3 -37Q0 -41 -5 -42T-14 -44T-22 -41T-24 -33Q-2 6 28 58T91 169T161 291T233 415T300 531T359 630Q365 635 375 634T383 625Z" />
<glyph unicode="0" glyph-name="zero" horiz-adv-x="383" d="M227 284Q199 284 177 273T138 244T114 200T105 144Q105 90 129 61T199 31Q250 31 284 68T318 172Q318 220 296 252T227 284ZM165 0Q117 0 86 28T55 104Q55 141 71 178T114 246T179 294T258 313Q308
313 338 285T368 210Q368 169 351 132T306 65T242 18T165 0Z" />
<glyph unicode="1" glyph-name="one" horiz-adv-x="204" d="M52 -6Q39 -6 41 3Q53 35 67 69T96 137T127 203T155 263Q131 257 111 252T73 247Q68 248 69 253T76 261Q95 263 117 269T160 284T202 304T237 328Q242 330 245 328T249 321Q224 288 202 249T162 170T130
89T107 13Q102 5 86 0T52 -6Z" />
<glyph unicode="2" glyph-name="two" horiz-adv-x="292" d="M201 313Q246 313 266 292T286 242Q286 213 274 191T237 148T178 107T96 59Q117 52 145 47T207 42Q230 42 242 48T260 66Q265 70 268 67T269 56Q252 30 230 15T172 0Q144 0 123 5T86 16T56 22T29 16Q21
11 15 7T4 0Q-1 0 -1 6T4 18Q47 46 88 69T160 115T211 164T230 225Q230 251 215 267T172 283Q140 283 119 261T90 207Q87 204 83 207T79 215Q83 233 93 250T118 282T155 304T201 313Z" />
<glyph unicode="3" glyph-name="three" horiz-adv-x="266" d="M186 313Q228 313 249 292T271 244Q271 204 239 178T144 127Q165 131 183 125T215 106T237 74T245 30Q245 -11 225 -46T172 -107T96 -147T5 -162Q-27 -162 -42 -144T-57 -94Q-56 -91 -52 -90T-46 -91Q-39
-110 -16 -123T50 -137Q110 -137 149 -103T188 -3Q188 47 166 73T100 100Q77 100 58 87Q53 87 51 91T52 101Q98 120 129 134T180 162T208 191T217 229Q217 253 203 271T161 290Q135 290 117 279T86 248Q84 245 79 248T76 256Q87 277 115 295T186 313Z" />
<glyph unicode="4" glyph-name="four" horiz-adv-x="372" d="M463 491Q449 476 439 463T419 435T401 406T382 373Q359 331 336 280T292 170H305Q340 170 361 179T391 205Q393 207 396 205T399 197Q380 162 354 146T277 129Q258 74 245 20Q243 15 236 11T220 3T202
-3T188 -6Q178 -6 177 0Q188 32 199 65T223 132Q190 135 163 140T116 148T81 153T58 148Q54 145 50 141Q46 139 42 141T40 148Q83 201 134 251T238 346T346 431T452 503Q457 504 461 500T463 491ZM239 172Q267 241 297 305T359 422Q283 368 220 314T98 193Q126
185 161 180T239 172Z" />
<glyph unicode="5" glyph-name="five" horiz-adv-x="250" d="M125 163Q170 144 197 109T224 34Q224 -2 208 -36T161 -96T89 -138T-5 -154Q-70 -154 -70 -94Q-69 -89 -65 -88T-58 -90Q-48 -107 -20 -117T44 -127Q104 -127 136 -89T169 9Q169 47 148 77T88 118Q75
123 73 133T76 164Q85 197 100 235T130 305Q135 310 146 310Q166 311 189 311T236 313Q281 316 289 333Q291 337 295 335T299 328Q290 295 277 282T232 267Q224 267 213 267T189 265T166 264T147 263Q126 262 122 250Q117 240 114 230T106 205Q101 188 105 179T125
163Z" />
<glyph unicode="6" glyph-name="six" horiz-adv-x="327" d="M391 499Q426 499 441 479T452 428Q450 425 447 425T442 426Q430 446 410 455T357 465Q275 465 221 405T126 231Q144 258 175 275T241 292Q260 292 275 285T300 264T316 235T322 201Q322 165 304 130T258
65T196 18T128 0Q91 0 71 27T50 107Q50 144 63 188T100 275T156 359T227 431T307 480T391 499ZM204 259Q185 259 167 249T135 220T112 178T103 125Q103 73 119 52T167 31Q184 31 201 40T233 68T257 114T266 179Q266 214 251 236T204 259Z" />
<glyph unicode="7" glyph-name="seven" horiz-adv-x="326" d="M195 313Q229 313 261 309T329 298Q343 295 354 306Q363 316 365 321Q369 323 372 320T373 309Q325 225 285 167T208 61T138 -33T70 -139Q66 -143 58 -147T39 -154T18 -160T-1 -162Q-5 -162 -8 -160T-9
-152Q31 -93 69 -50T147 35T228 126T317 246Q300 248 286 250T256 253T223 254T182 255Q133 255 111 238T75 178Q72 174 68 177T64 186Q72 212 84 242T107 292Q112 297 118 301T135 307T159 311T195 313Z" />
<glyph unicode="8" glyph-name="eight" horiz-adv-x="336" d="M402 401Q402 320 282 271Q303 248 320 222T337 154Q337 125 323 97T283 48T224 13T151 0Q97 0 69 25T40 94Q40 148 83 194T211 265Q192 287 178 310T163 368Q163 387 173 406T201 441T247 466T308
476Q350 476 376 454T402 401ZM189 28Q232 28 257 53T283 123Q283 169 265 198T223 252Q153 232 125 198T97 118Q97 77 120 53T189 28ZM271 282Q351 316 351 381Q351 415 332 433T280 452Q251 452 234 435T216 391Q216 354 232 330T271 282Z" />
<glyph unicode="9" glyph-name="nine" horiz-adv-x="335" d="M32 -151Q1 -151 -14 -137T-30 -99Q-29 -96 -26 -94T-21 -94Q-13 -106 5 -113T52 -121Q91 -121 121 -109T174 -72T215 -8T249 88Q229 59 200 40T133 21Q86 21 66 42T45 108Q45 144 60 180T100 246T158
294T229 313Q277 313 303 286T329 220Q329 147 303 80T234 -38T139 -120T32 -151ZM167 53Q188 53 206 65T239 99T262 146T271 200Q271 237 255 261T200 285Q153 285 127 246T100 129Q100 53 167 53Z" />
<glyph unicode=":" glyph-name="colon" horiz-adv-x="160" d="M40 0Q31 0 26 5T20 24Q20 30 24 38T35 53T51 66T69 71Q75 71 80 67T85 55Q85 47 81 37T70 19T55 6T40 0ZM98 185Q89 185 84 190T79 209Q79 215 83 223T93 238T109 251T127 256Q133 256 138 252T143
240Q143 232 139 222T128 204T113 191T98 185Z" />
<glyph unicode=";" glyph-name="semicolon" horiz-adv-x="163" d="M100 185Q91 185 86 190T81 209Q81 215 85 223T95 238T111 251T130 256Q135 256 140 252T146 240Q146 232 142 222T131 204T116 191T100 185ZM78 73Q83 71 87 61T91 38Q91 5 66 -28T1 -85Q-3 -85
-4 -82T-1 -74Q20 -61 33 -41T47 2Q47 24 36 29Q33 32 36 39T47 54T62 67T78 73Z" />
<glyph unicode="&lt;" glyph-name="less" horiz-adv-x="301" d="M30 138Q25 141 30 149T51 162Q67 167 94 176T153 195T216 215T271 232Q277 231 272 221T252 206Q242 203 221 196T175 181T123 164T76 148Q106 135 146 117T221 83Q226 78 217 71T194 65Q180 71
159 80T114 100T69 121T30 138Z" />
<glyph unicode="=" glyph-name="equal" horiz-adv-x="301" d="M97 194Q112 194 134 194T181 195T232 195T282 193Q286 193 286 190T282 182T275 174T264 170Q218 171 167 171T68 168Q62 170 67 180T97 194ZM73 121Q88 121 110 121T156 121T207 121T257 120Q265
118 258 108T239 97Q193 97 142 97T43 95Q37 97 42 107T73 121Z" />
<glyph unicode="&gt;" glyph-name="greater" horiz-adv-x="301" d="M271 156Q276 153 271 145T250 132Q234 127 207 118T148 99T85 79T30 62Q24 63 29 73T49 88Q59 91 80 98T126 113T178 130T225 146Q195 159 155 177T80 211Q75 216 84 223T107 229Q121 223 142
214T187 194T232 173T271 156Z" />
<glyph unicode="?" glyph-name="question" horiz-adv-x="296" d="M74 0Q65 0 60 5T55 24Q55 30 59 38T69 53T85 66T103 71Q109 71 114 67T119 55Q119 47 115 37T104 19T89 6T74 0ZM296 519Q319 519 338 512T370 492T391 463T399 429Q399 389 385 363T348 317T298
283T244 256T197 228T164 190Q156 173 162 161T185 146Q192 145 188 140T174 129T153 119T135 116Q126 118 120 126T113 145T117 170T135 197Q162 226 198 246T266 287T320 335T343 404Q343 439 324 461T268 484Q231 484 208 464T178 414Q173 409 167 414T162 424Q169
443 182 460T213 490T252 511T296 519Z" />
<glyph unicode="@" glyph-name="at" horiz-adv-x="513" d="M347 75Q387 75 413 104T440 191Q440 220 430 247T399 294T348 327T276 339Q234 339 200 326T141 288T103 224T89 134Q89 96 101 64T136 8T192 -29T270 -43Q327 -43 362 -24T418 31Q421 34 423 31T425
22Q400 -23 352 -49T242 -76Q154 -76 102 -27T50 116Q50 165 68 210T119 289T201 343T309 364Q345 364 375 352T427 318T461 270T473 212Q473 179 459 148T422 93T371 55T315 41Q280 41 280 86Q280 109 291 137Q269 103 245 79T195 49Q177 49 165 63T153 107Q153
134 165 160T198 208T244 242T297 255Q312 255 322 252T342 242Q347 246 360 249T380 253Q385 253 383 249Q369 232 358 213T339 174T327 137T323 107Q323 75 347 75ZM217 81Q226 81 239 93T267 123T295 165T320 213Q316 224 307 231T282 239Q266 239 251 231T223
207T204 170T197 121Q197 104 203 93T217 81Z" />
<glyph unicode="A" glyph-name="A" horiz-adv-x="1015" d="M1021 585Q1024 583 1024 580T1018 570Q985 534 959 488T915 386T887 270T877 145Q877 97 888 71T929 44Q969 44 1005 100Q1008 102 1011 100T1013 94Q987 52 956 26T897 0Q857 0 837 31T816 119Q816
199 834 282Q787 282 742 281T653 278Q620 243 590 212T530 155Q450 82 366 41T180 0Q126 0 94 24T51 85T51 166T95 251Q98 253 102 251T105 241Q82 216 80 184T93 123T145 75T233 55Q318 55 392 90T533 185Q556 205 579 228T627 276Q592 274 561 272T503 265Q498
266 501 270T510 278T524 286T541 291Q554 292 581 292T644 294Q700 352 768 419T931 561Q864 583 793 597T655 612Q580 612 532 571T473 440Q471 435 468 436T463 442Q475 540 536 592T694 644Q735 644 780 639T868 625T951 606T1021 585ZM837 295Q853 367 882
435T953 560Q865 489 796 422T669 294Q717 295 763 295T837 295Z" />
<glyph unicode="B" glyph-name="B" horiz-adv-x="665" d="M526 364Q556 355 579 337T619 296T645 247T654 197Q654 154 638 118T588 56T502 15T379 0Q266 0 183 30T30 118Q27 123 31 129T45 141T64 148T84 146Q103 127 122 122T169 121Q195 126 212 140T244 186T274
267T311 393Q332 468 363 523T440 616Q434 616 428 616T413 617Q380 617 348 608T288 581T236 538T199 479Q196 477 194 478T192 485Q204 516 228 545T286 596T363 631T454 644Q461 644 467 644T479 643Q500 655 523 664T572 680Q577 680 577 677T572 671Q536 662
506 641Q594 630 637 591T681 500Q681 470 669 445T637 402T588 374T526 364ZM401 15Q446 15 481 27T541 61T577 112T590 175Q590 305 430 348Q427 351 432 357T447 370T466 381T482 384Q492 380 499 378T519 376Q537 376 554 384T585 405T607 438T616 479Q616
527 580 564T472 612Q408 546 372 411Q346 314 321 255T268 162T209 116T139 102Q190 64 258 40T401 15Z" />
<glyph unicode="C" glyph-name="C" horiz-adv-x="577" d="M485 644Q521 644 551 641T603 630T637 614T650 592Q650 584 646 571T637 543T624 514T611 492Q608 490 604 492T601 500Q622 537 610 557Q597 578 555 597T451 616Q373 616 315 592T217 524T159 417T139
276Q139 220 154 173T198 91T269 37T365 17Q437 17 485 61T553 180Q555 185 560 184T565 178Q561 157 554 132T537 84T519 45T504 26Q472 14 433 7T349 0Q209 0 139 65T69 245Q69 330 99 403T185 530T317 613T485 644Z" />
<glyph unicode="D" glyph-name="D" horiz-adv-x="817" d="M587 594Q636 567 677 530T749 447T795 353T812 255Q812 200 791 153T732 72T641 19T522 0Q484 0 451 4T389 16T332 33T277 52Q239 25 193 13T89 0Q57 0 44 7T30 28Q30 41 39 56T66 85T107 106T160 115Q199
115 231 108T296 90Q331 130 362 198T427 372Q447 434 470 482T525 565Q485 585 441 595T348 606Q304 606 272 593T217 558T182 507T164 446Q162 444 159 445T156 450Q160 491 178 526T226 588T299 629T394 644Q440 644 483 634T566 604Q592 625 622 639T691 661Q694
661 694 658T691 652Q632 636 587 594ZM123 18Q165 18 198 26T261 57Q228 67 193 74T116 81Q93 81 83 73T72 51Q72 36 84 27T123 18ZM571 33Q667 33 712 83T757 224Q757 271 742 318T700 408T635 488T550 552Q505 491 473 393Q438 282 401 207T315 83Q340 74 366
66T424 50T491 38T571 33Z" />
<glyph unicode="E" glyph-name="E" horiz-adv-x="513" d="M288 523Q288 488 312 464T393 422Q396 420 393 415T383 403T370 391T359 385Q248 390 188 338T127 182Q127 147 137 117T167 65T214 31T277 18Q359 18 411 56T486 179Q489 184 492 182T497 174Q485 118
469 81T438 38Q396 19 353 10T252 0Q158 0 109 41T60 158Q60 206 79 246T131 319T211 373T312 405Q274 421 251 448T228 510Q228 537 241 561T281 604T345 633T432 644Q459 644 483 639T525 626T554 608T565 587Q565 579 562 567T553 543T542 521T533 506Q530 504
527 506T525 512Q531 523 533 536T529 563Q517 588 485 605T408 623Q348 623 318 596T288 523Z" />
<glyph unicode="F" glyph-name="F" horiz-adv-x="645" d="M852 610Q856 607 853 601T844 588T828 576T812 571Q788 573 764 576T715 583Q694 577 679 566T651 535T628 488T606 418Q599 395 593 373T579 331H682Q687 329 686 327T676 322Q650 321 625 321T575 319Q515
154 423 77T201 0Q129 0 90 34T50 128Q50 163 70 193T129 240Q133 240 135 237T135 230Q117 216 109 200T100 154Q100 128 109 107T137 69T186 43T258 34Q306 34 342 46T409 89T465 176T518 317Q467 315 419 311T325 300Q322 301 326 304T337 312T354 319T368 324Q443
328 522 330Q527 346 532 363T542 398Q564 479 598 522T691 587Q637 595 588 601T493 608Q418 608 369 580T297 482Q294 479 291 481T288 488Q310 559 374 602T534 645Q571 645 608 641T685 632T765 620T852 610Z" />
<glyph unicode="G" glyph-name="G" horiz-adv-x="610" d="M575 605Q507 605 451 577T354 499T291 383T268 239Q268 171 292 136T368 101Q427 101 470 133T530 226Q532 234 543 239T566 247T588 248T598 240Q566 127 522 46T423 -86T303 -162T165 -186Q66 -186
15 -145T-37 -34Q-37 8 -11 44T69 100Q74 102 75 97T72 87Q48 73 37 51T25 -10Q25 -85 68 -126T191 -168Q245 -168 291 -152T376 -99T447 -3T506 143Q475 117 436 100T348 82Q200 82 200 216Q200 262 215 311T259 408T326 498T411 573T511 624T621 643Q669 643
698 622T727 569Q727 558 720 543T703 513T681 483T663 457Q660 455 656 457T653 464Q667 486 673 503T680 540Q680 568 655 586T575 605Z" />
<glyph unicode="H" glyph-name="H" horiz-adv-x="904" d="M1129 681Q1174 681 1174 637Q1174 623 1169 605T1159 575Q1153 573 1151 579Q1159 602 1146 618T1090 635Q1046 635 1011 614T943 546T881 423T820 237Q834 233 846 230T870 223Q872 221 868 217T855
209T836 202T815 200Q814 200 810 202Q807 191 805 182T799 161Q768 44 812 44Q851 44 887 100Q890 103 893 101T895 94Q884 77 871 61T842 31T811 9T781 0Q744 0 729 30T731 127Q737 151 743 173T757 218Q698 235 630 248T490 267Q434 125 352 63T173 0Q110 0
80 26T50 92Q50 130 73 166T143 229T258 274T417 291H443Q447 305 451 319T460 349Q476 408 493 448T527 516T562 559T599 585Q573 594 537 601T460 609Q413 609 382 596T332 561T310 508T312 443Q311 438 308 437T302 440Q293 482 302 519T336 585T404 629T506
645Q548 645 587 636T657 613Q661 607 657 602T637 591Q617 583 603 569T577 531T554 472T529 387Q522 361 515 336T498 288Q564 283 633 273T767 249Q801 351 844 431T935 567T1031 652T1129 681ZM201 24Q245 24 279 36T340 77T391 153T437 271Q423 272 409 272T381
272Q306 272 253 260T166 226T116 175T100 112Q100 69 126 47T201 24Z" />
<glyph unicode="I" glyph-name="I" horiz-adv-x="593" d="M777 645Q781 643 780 638T773 626T762 613T749 604Q727 598 711 587T682 554T656 500T631 414Q596 279 530 185Q543 187 554 191T571 198Q574 199 575 197T574 191Q566 186 552 181T523 174Q460 89 378
45T201 0Q128 0 89 26T50 93Q50 128 78 159T166 206Q171 205 171 202T170 197Q109 177 109 121Q109 79 142 54T234 29Q312 29 374 61T483 171Q432 174 405 210T378 303Q378 365 411 426T499 536T626 615T777 645ZM569 392Q580 437 593 469T622 524T658 565T706
597Q637 589 579 560T479 491T414 402T391 307Q391 247 417 216T488 181Q535 261 569 392Z" />
<glyph unicode="J" glyph-name="J" horiz-adv-x="674" d="M861 644Q866 641 864 635T856 623T843 611T833 603Q812 597 796 586T767 554T741 499T715 413Q682 285 634 185Q645 188 653 191T666 197Q670 197 671 195T670 190Q663 185 653 181T629 174Q584 82 530
15T414 -97T287 -163T155 -185Q79 -185 40 -155T0 -61Q0 -27 18 11T73 83T165 144T296 185Q301 185 301 181T296 175Q175 152 115 95T55 -34Q55 -95 89 -126T189 -157Q248 -157 302 -139T406 -82T498 19T580 169Q528 171 495 206T462 302Q462 364 495 425T583 535T710
614T861 644ZM653 391Q675 477 712 525T790 596Q721 588 663 559T563 490T498 401T475 306Q475 248 504 215T584 179Q621 270 653 391Z" />
<glyph unicode="K" glyph-name="K" horiz-adv-x="970" d="M571 347Q556 263 523 198T442 89T335 23T208 0Q132 0 91 32T50 115Q50 156 77 191T153 242Q158 243 160 240T160 232Q134 218 120 193T105 136Q105 88 138 58T234 28Q294 28 339 43T416 92T469 180T505
313Q517 382 532 428T564 506T600 555T642 584Q616 594 581 600T504 607Q442 607 396 587T323 530T286 444T289 336Q288 331 284 330T278 332Q264 394 276 451T322 551T414 619T548 645Q589 645 628 636T698 613Q702 607 698 602T678 591Q657 582 642 566T614 522T592
451T571 347ZM651 386Q673 308 694 245T742 138T801 70T876 46Q899 46 917 57T946 87Q949 90 952 87T954 78Q936 44 905 22T834 0Q788 0 753 27T691 102T643 211T605 342Q604 347 604 351T610 361Q655 419 703 471T800 561T892 622T975 645Q995 645 1006 630T1017
594Q1017 580 1014 561T1005 528Q997 523 995 531Q1000 555 988 572T943 590Q879 590 803 536T651 386Z" />
<glyph unicode="L" glyph-name="L" horiz-adv-x="675" d="M676 645Q707 645 726 624T745 571Q745 551 736 525T717 481Q713 478 709 480T705 487Q711 505 710 523T700 556T673 580T626 590Q588 590 561 577T510 530T467 440T426 300Q391 166 329 93Q374 76 423
63T533 49Q583 49 609 67T652 119Q656 122 659 120T662 111Q638 57 598 29T491 0Q432 0 384 17T289 55Q216 0 110 0Q70 0 50 14T30 49Q30 62 39 77T66 105T106 127T159 136Q196 136 231 127T304 103Q321 131 337 173T369 276Q392 362 424 430T495 546T580 619T676
645ZM155 26Q191 26 219 33T271 63Q234 79 196 91T115 103Q69 103 69 72Q69 52 91 39T155 26Z" />
<glyph unicode="M" glyph-name="M" horiz-adv-x="1277" d="M1344 657Q1349 657 1351 652T1350 642Q1299 592 1260 531T1193 404T1153 276T1139 159Q1139 105 1152 75T1188 44Q1208 44 1226 59T1263 101Q1266 103 1269 101T1272 94Q1261 77 1247 61T1217 31T1183
9T1150 0Q1113 0 1095 34T1077 125Q1077 172 1088 229T1120 347T1172 464T1242 568Q1182 523 1118 460T995 326T884 178T798 30Q796 26 790 21T776 11T760 3T746 0Q738 0 740 7Q759 162 794 283T878 506Q798 386 722 292T568 133T410 34T245 0Q151 0 101 47T50
171Q50 222 79 262T159 322Q163 324 164 320T164 313Q133 293 121 267T108 199Q108 166 119 137T151 85T204 49T278 36Q365 36 444 76T599 185T747 349T892 551Q822 575 746 591T598 608Q517 608 473 563T419 440Q417 435 414 436T409 442Q420 541 481 593T640
645Q680 645 725 640T813 625T896 606T966 585Q970 586 976 588Q980 587 981 583T980 576Q966 568 957 555T936 521Q886 420 857 311T808 89Q854 172 916 255T1050 414T1196 552T1344 657Z" />
<glyph unicode="N" glyph-name="N" horiz-adv-x="993" d="M1219 644Q1251 644 1265 619T1280 542Q1279 536 1274 535T1267 540Q1265 556 1252 571T1209 586Q1177 586 1144 561T1080 494T1021 396T972 276T937 147T922 18Q922 7 920 4T913 0Q908 0 906 4T902 15Q857
180 793 307T648 509Q626 386 586 291T491 132T370 34T229 0Q182 0 147 11T89 43T55 90T43 149Q43 189 62 227T119 290Q124 292 126 288T126 279Q108 261 98 239T87 191Q87 128 129 90T255 52Q399 52 496 170T628 527Q583 563 536 582T438 602Q390 602 359 580T313
532Q310 529 307 530T302 536Q311 555 328 574T367 609T417 634T475 644Q517 644 557 630T636 588Q638 594 642 601T650 615T658 623T663 622Q662 609 661 597T658 572Q702 537 741 489T814 383T875 263T921 134Q929 189 945 248T984 363T1034 471T1092 560T1155
621T1219 644Z" />
<glyph unicode="O" glyph-name="O" horiz-adv-x="646" d="M466 644Q520 644 561 627T632 578T676 502T691 406Q691 325 659 252T572 122T449 33T305 0Q248 0 205 17T131 66T86 140T70 232Q70 308 102 382T189 514T315 608T466 644ZM360 36Q412 36 460 60T547 129T608
236T631 376Q631 424 619 466T580 539T515 588T422 606Q355 606 302 580T211 507T153 399T132 265Q132 213 147 171T191 99T262 53T360 36Z" />
<glyph unicode="P" glyph-name="P" horiz-adv-x="821" d="M712 642Q758 636 795 619T857 577T897 519T911 450Q911 403 893 362T841 291T759 244T651 226Q586 226 543 258Q480 123 395 62T212 0Q129 0 90 41T50 146Q50 165 56 184T75 221T104 253T144 276Q147
278 149 276T150 269Q120 253 106 226T92 168Q92 141 101 117T129 74T179 46T251 35Q299 35 335 47T400 89T454 170T504 301Q486 330 479 364Q480 368 483 370T488 369Q495 340 509 317Q513 330 516 344T524 372Q549 461 579 520T647 615Q642 616 632 616Q526 616
454 568T353 419Q350 416 347 418T343 428Q377 528 456 586T666 644H682Q720 669 767 681Q772 681 772 677T767 670Q737 661 712 642ZM662 246Q704 246 738 260T796 299T834 357T847 428Q847 499 805 548T683 612Q633 549 600 420Q589 379 577 343T550 274Q591
246 662 246Z" />
<glyph unicode="Q" glyph-name="Q" horiz-adv-x="602" d="M426 645Q481 645 522 628T592 582T635 514T650 431Q650 353 615 284T521 160T385 70T223 23Q249 14 280 0T345 -31T415 -65T487 -96Q526 -111 557 -118T627 -125Q678 -125 711 -112T769 -72Q771 -70 775
-72T777 -79Q750 -117 703 -144T596 -172Q575 -172 558 -170T523 -164T487 -153T448 -136Q398 -113 346 -86T246 -36T153 3T76 18Q71 20 71 24T80 37Q88 43 103 48T126 54Q139 54 156 46T189 38Q266 38 337 65T463 141T551 259T584 410Q584 456 573 495T540 564T487
609T413 625Q357 625 311 602T230 536T178 436T159 306Q159 252 182 213T252 166Q287 160 302 173Q305 175 307 172T308 164Q300 153 281 146T239 139Q178 139 141 178T104 291Q104 362 130 426T200 539T302 616T426 645Z" />
<glyph unicode="R" glyph-name="R" horiz-adv-x="870" d="M870 76Q872 78 876 78T879 73Q858 39 830 20T770 0Q726 0 695 25T642 93T604 192T576 309Q576 316 580 317Q585 320 598 323T623 331Q626 332 632 331T648 328T671 326T701 329Q744 339 768 373T792 467Q792
496 783 522T755 567T709 599T644 615Q618 582 598 533T560 420Q530 310 491 231T403 100T299 25T182 0Q113 0 82 31T50 114Q50 160 76 195T141 244Q151 248 147 237Q89 206 89 145Q89 96 120 67T213 37Q263 37 300 48T369 95T427 197T485 372Q530 538 610 615Q517
612 451 580T336 478Q332 476 329 478T328 485Q375 554 454 596T645 644Q682 669 727 681Q732 681 732 678T727 672Q700 665 674 644Q716 644 749 631T805 596T840 546T852 488Q852 446 837 412T793 354T724 319T633 312Q648 234 666 182T705 98T753 54T811 41Q845
41 870 76Z" />
<glyph unicode="S" glyph-name="S" horiz-adv-x="513" d="M50 131Q50 174 72 204T134 250Q139 252 141 247T140 238Q122 228 112 207T101 156Q101 95 146 60T263 25Q357 25 397 62T438 159Q438 215 415 257T365 337T314 413T291 499Q291 527 303 553T338 599T392
632T460 644Q511 644 540 623T570 571Q570 554 556 530T526 487Q522 485 519 488T517 495Q522 503 525 514T529 540Q529 556 522 570T502 595T472 612T436 619Q386 619 363 595T340 533Q340 503 351 477T380 424T416 371T453 316T481 256T493 187Q493 148 474 114T420
55T341 15T244 0Q149 0 100 37T50 131Z" />
<glyph unicode="T" glyph-name="T" horiz-adv-x="593" d="M826 587Q833 582 825 572Q816 559 803 552T781 546Q771 549 762 552T741 558Q716 556 693 543T649 503T609 436T572 338Q520 169 427 85T202 0Q130 0 90 31T50 111Q50 146 72 175T127 219Q131 219 132
215T132 208Q115 195 108 179T101 142Q101 91 139 63T248 35Q296 35 332 47T398 91T451 174T502 307Q538 420 590 485T710 566Q644 583 573 593T429 603Q373 603 331 586T262 539T223 469T217 384Q212 374 206 382Q200 432 214 479T261 563T346 622T472 644Q578
644 666 627T826 587Z" />
<glyph unicode="U" glyph-name="U" horiz-adv-x="765" d="M427 579Q401 589 362 597T281 605Q223 605 181 581T113 516T80 423T83 316Q82 312 78 310T72 312Q58 375 69 434T114 540T201 615T326 644Q368 644 407 635T477 612Q482 608 474 600Q421 558 381 506T312
395T269 275T254 153Q254 96 275 69T341 42Q393 42 442 76T544 181T654 361T780 622Q784 630 803 637T844 644Q860 644 860 637Q842 616 820 578T776 491T734 387T697 280T672 181T662 101Q662 44 700 44Q737 44 774 100Q777 103 780 101T783 93Q756 50 726 25T667
0Q638 0 620 19T602 78Q602 128 617 197T664 346Q573 175 484 88T306 0Q251 0 221 34T190 125Q190 179 206 238T252 357T326 472T427 579Z" />
<glyph unicode="V" glyph-name="V" horiz-adv-x="694" d="M789 526Q789 449 754 384T661 257T531 133T386 -1Q368 -1 377 30Q396 88 408 153T423 282T419 404T394 506T343 577T264 604Q196 604 152 551T80 387Q78 383 74 384T70 389Q83 445 102 492T149 572T214
625T299 644Q345 644 378 621T433 558T465 464T475 346T465 213T435 73Q505 131 561 182T655 282T713 383T734 492Q734 539 714 568T665 597Q647 597 637 589T618 562Q608 558 608 569Q613 583 622 596T642 620T664 637T684 644Q708 644 727 634T760 608T781 570T789
526Z" />
<glyph unicode="W" glyph-name="W" horiz-adv-x="845" d="M576 34Q580 92 575 157T564 284T559 396T575 476Q541 429 512 384T454 289T400 186T345 67Q330 32 326 16T312 0Q304 0 302 7T307 34Q335 104 352 174T374 307T373 424T350 518T304 580T236 603Q198 603
170 587T122 545T92 484T82 411Q80 405 76 404T71 408Q69 456 83 499T123 576T187 628T274 648Q336 648 371 609T418 504T418 349T372 163Q399 220 432 280T502 397T581 505T664 596Q669 598 672 588T671 572Q655 565 643 550Q626 528 620 495T613 421T616 336T624
247T630 160T628 83Q653 119 684 152T747 218T809 284T862 355T900 435T915 528Q915 561 906 580T879 599Q867 599 859 587T842 560Q839 558 836 560T833 567Q844 597 864 620T905 643Q938 643 954 617T971 553Q971 495 953 448T904 359T836 279T757 202T679 120T610
26Q602 14 596 7T581 0Q576 0 575 3T573 11T574 22T576 34Z" />
<glyph unicode="X" glyph-name="X" horiz-adv-x="813" d="M813 644Q830 644 840 631T851 590Q851 566 841 534T814 479Q810 476 807 478T803 486Q813 510 813 532Q813 558 802 571T764 585Q730 585 695 568T627 521T562 448T505 354Q521 284 542 228T590 133T649
73T720 52Q749 52 768 69T800 115Q803 118 806 116T810 106Q783 46 756 23T694 0Q651 0 615 22T550 84T499 174T464 284Q389 142 303 71T131 0Q93 0 72 16T50 58Q50 68 54 84T67 120T86 159T111 196Q114 200 119 198T122 189Q106 166 101 145T98 103Q101 80 119
67T173 54Q215 54 253 71T327 122T395 202T459 308Q445 373 438 424T423 510T407 565T381 584Q361 584 343 563T310 513Q305 508 301 510T298 520Q309 544 324 566T355 605T386 633T413 644Q439 644 452 621T472 560T485 474T500 377Q528 436 564 485T641 569T725
624T813 644Z" />
<glyph unicode="Y" glyph-name="Y" horiz-adv-x="700" d="M444 644Q461 644 472 635T487 606T485 552T464 469Q444 407 428 358T404 258Q398 215 410 193T461 171Q548 171 642 286T849 628Q860 638 874 641T902 644Q914 644 912 634Q809 414 719 268T543 33T375
-91T203 -128Q109 -128 58 -80T7 44Q7 82 22 118T67 183T140 233T239 259Q244 258 244 254T238 245Q192 239 160 224T106 186T76 134T66 71Q66 -5 112 -48T245 -92Q309 -92 366 -70T479 3T590 140T708 351Q680 305 647 266T577 197T502 151T427 134Q379 134 358
159T343 232Q351 287 367 342T400 448Q416 498 422 528T428 576T420 598T400 604Q377 604 357 587T325 551Q321 548 318 551T315 559Q324 575 338 590T370 618T406 637T444 644Z" />
<glyph unicode="Z" glyph-name="Z" horiz-adv-x="625" d="M436 644Q486 644 528 635T621 609Q646 601 658 601T684 614Q689 619 708 619Q717 619 714 612Q651 553 583 490T444 360T302 226T164 95Q188 97 212 91T268 76T340 60T437 52Q506 52 545 81T609 168Q612
170 617 167T621 159Q601 117 579 86T530 34T467 3T386 -7Q350 -7 321 -4T268 6T220 19T172 34Q141 43 120 36T71 0Q65 -2 57 3T52 14Q137 94 205 159T338 286T467 410T612 546Q565 562 510 576T397 590Q337 590 309 559T270 468Q267 463 263 464T257 471Q264 509
277 541T311 596T362 631T436 644Z" />
<glyph unicode="[" glyph-name="bracketleft" horiz-adv-x="331" d="M248 612Q250 623 264 623Q288 623 308 623T349 623T390 623T438 621Q447 619 442 612T425 604Q401 606 369 606T308 606Q259 420 217 245T147 -79Q164 -79 176 -79T200 -80T224 -80T255 -79Q261
-82 259 -88T240 -96Q218 -96 203 -96T171 -96T137 -95T90 -94Q79 -94 79 -84Q124 91 168 271T248 612Z" />
<glyph unicode="\" glyph-name="backslash" horiz-adv-x="215" d="M53 630Q63 565 79 478T113 299T148 122T180 -24Q180 -35 171 -40T156 -37Q143 29 127 112T93 283T60 458T30 621Q32 629 40 633T53 630Z" />
<glyph unicode="]" glyph-name="bracketright" horiz-adv-x="352" d="M208 -86Q206 -92 203 -94T192 -96Q168 -96 148 -96T107 -96T65 -96T18 -95Q9 -93 14 -86T31 -77Q55 -79 87 -79T148 -79Q197 107 239 281T309 605Q292 606 280 606T256 607T233 607T202 606Q195
608 197 614T216 623Q238 623 253 623T285 622T319 622T366 620Q377 620 377 611Q355 524 332 435T288 256T246 81T208 -86Z" />
<glyph unicode="^" glyph-name="asciicircum" horiz-adv-x="278" d="M181 361Q191 373 198 359Q212 321 227 283T257 209Q258 204 255 198T247 186T236 178T227 178Q213 212 199 248T171 314Q144 279 114 242T60 178Q56 175 53 178T52 188Q75 220 109 264T181 361Z" />
<glyph unicode="_" glyph-name="underscore" horiz-adv-x="356" d="M33 -29Q50 -28 86 -27T164 -26T246 -25T312 -25Q317 -27 315 -35T303 -45Q277 -45 239 -45T158 -47T71 -51T-11 -58Q-16 -57 -13 -53T-2 -43T15 -34T33 -29Z" />
<glyph unicode="`" glyph-name="grave" horiz-adv-x="155" d="M133 325Q135 323 133 320T126 316Q100 323 70 335T20 360Q18 361 18 363T20 368Q33 379 48 384T67 386Q79 372 97 355T133 325Z" />
<glyph unicode="a" glyph-name="a" horiz-adv-x="327" d="M304 63Q306 65 309 63T311 57Q293 31 271 16T229 0Q206 0 200 32T206 110Q179 67 148 37T81 0Q57 0 44 22T31 73Q31 106 47 138T89 197T148 239T214 256Q249 256 269 239Q279 246 294 251T322 256Q326
256 326 251Q303 223 287 190T261 126T250 71T254 38Q259 32 271 34T304 63ZM112 37Q124 37 141 52T178 92T215 148T248 211Q244 224 230 232T196 240Q173 240 153 229T119 197T96 148T87 85Q87 63 94 50T112 37Z" />
<glyph unicode="b" glyph-name="b" horiz-adv-x="319" d="M526 756Q545 756 558 748T578 725T586 694T583 657Q577 653 574 658Q571 678 553 692T500 707Q444 707 396 679T306 589T225 427T149 184Q156 195 168 207T197 231T230 249T265 256Q286 256 299 237T312
192Q312 154 293 120T245 59T182 16T118 0Q93 0 83 12T73 46Q73 74 80 112T101 194T132 285T172 379Q257 562 344 659T526 756ZM231 223Q216 223 199 214T167 185T142 136T128 69Q126 47 133 38T156 29Q175 29 194 41T228 74T253 120T263 170Q263 199 254 211T231
223Z" />
<glyph unicode="c" glyph-name="c" horiz-adv-x="229" d="M198 166Q192 164 192 171Q199 192 190 208T155 224Q123 224 104 184T84 80Q84 33 121 33Q138 33 158 45T196 78Q200 80 203 77T204 70Q179 38 148 19T82 0Q60 0 45 15T30 59Q30 94 44 129T82 193T132
238T185 256Q208 256 221 243T234 214Q234 208 231 201T222 187T210 174T198 166Z" />
<glyph unicode="d" glyph-name="d" horiz-adv-x="317" d="M618 756Q633 756 642 748T656 727T658 698T648 665Q646 663 643 663T639 668Q641 683 631 690T603 698Q549 698 499 662T405 552T323 363T255 90Q250 68 254 53T269 37Q280 37 290 46T308 69Q310 71 313
69T316 63Q311 53 302 42T281 22T257 6T234 0Q212 0 203 16T196 52Q198 69 201 84T208 116Q188 73 152 42T81 0Q58 0 44 17T30 61Q30 100 44 135T82 198T139 241T210 257Q231 257 247 250Q265 304 290 362T345 477T408 584T477 673T548 733T618 756ZM113 39Q124
39 139 50T170 81T200 126T224 181Q228 190 231 199T236 218Q232 230 221 235T195 241Q174 241 154 229T119 194T95 142T85 76Q85 60 92 50T113 39Z" />
<glyph unicode="e" glyph-name="e" horiz-adv-x="237" d="M237 206Q237 149 86 128Q85 118 85 108T84 87Q84 61 96 47T134 33Q153 33 173 44T205 72Q209 74 211 71T212 63Q192 37 162 19T96 0Q61 0 46 17T30 67Q30 98 43 131T76 193T123 238T177 256Q204 256 220
241T237 206ZM150 230Q127 230 111 209T88 142Q136 147 159 160T182 194Q182 209 173 219T150 230Z" />
<glyph unicode="f" glyph-name="f" horiz-adv-x="173" d="M481 727Q500 727 513 718T534 693T541 660T532 624Q524 618 522 627Q520 647 500 662T436 677Q409 677 386 672T343 652T302 609T260 533T213 417T158 252Q183 253 209 253T260 253Q265 251 264 247T255
242Q232 241 206 241T154 238Q152 233 151 228T147 217Q108 92 63 5T-30 -138T-129 -218T-228 -243Q-261 -243 -278 -227T-296 -186Q-296 -159 -277 -137Q-274 -134 -272 -136T-269 -141Q-274 -151 -273 -162T-265 -184T-242 -200T-203 -207Q-157 -207 -121 -194T-52
-136T16 -8T94 215L100 233Q81 231 64 229T31 223Q26 224 29 228T38 236T54 243T71 248Q79 249 87 249T105 251Q146 375 191 465T285 613T382 699T481 727Z" />
<glyph unicode="g" glyph-name="g" horiz-adv-x="238" d="M241 271Q244 273 247 271T249 265Q241 254 231 245T206 234Q220 218 220 195Q220 170 213 152T195 117T175 88T160 60T155 30T171 -8Q193 -42 203 -68T214 -124Q214 -149 203 -170T170 -208T119 -234T51
-244Q-25 -244 -69 -216T-113 -142Q-113 -107 -89 -80T-16 -39Q-11 -39 -10 -42T-10 -49Q-32 -57 -45 -73T-58 -115Q-58 -166 -23 -197T69 -229Q117 -229 140 -204T163 -141Q163 -118 156 -100T136 -59Q117 -27 119 3T139 64Q140 66 140 66T142 69Q131 58 119 51T94
44Q65 44 50 61T34 111Q34 136 45 162T73 209T113 243T158 256Q192 256 211 258T241 271ZM161 104Q167 118 171 133T175 164Q175 192 166 209T135 226Q109 226 94 204T78 133Q78 75 116 75Q127 75 140 83T161 104Z" />
<glyph unicode="h" glyph-name="h" horiz-adv-x="324" d="M24 9Q69 181 127 319T251 554T382 703T509 756Q534 756 548 745T568 717T570 681T555 647Q552 644 549 645T546 650Q551 670 535 688T484 706Q430 706 382 677T287 581T197 402T107 124Q122 151 141 175T184
217T233 245T287 256Q299 256 304 250T310 236Q310 223 301 207Q280 170 267 131T254 60Q254 46 257 37T268 28Q278 28 290 38T310 62Q313 64 316 62T318 56Q305 34 282 17T239 0Q222 0 211 9T200 42Q200 60 203 80T212 121T225 160T242 196Q247 208 247 213Q247
222 237 222Q218 222 196 208T153 167T113 103T79 21Q77 14 63 7T32 0Q22 0 24 9Z" />
<glyph unicode="i" glyph-name="i" horiz-adv-x="166" d="M159 299Q156 296 153 299T147 307T145 319T148 331Q159 345 180 366T225 403Q227 404 230 402T232 397Q211 378 192 352T159 299ZM52 186Q49 184 47 187T46 194Q83 224 149 256Q157 256 157 247Q144 224
132 197T110 144T94 93T88 52Q88 32 102 32Q113 32 123 41T148 66Q150 68 153 66T154 58Q132 32 111 16T69 0Q34 0 34 33Q34 51 39 75T54 125T75 175T99 218Q88 212 75 203T52 186Z" />
<glyph unicode="j" glyph-name="j" horiz-adv-x="153" d="M149 299Q146 296 143 299T137 307T135 319T138 331Q149 345 170 366T215 403Q218 404 221 402T222 397Q201 378 182 352T149 299ZM82 215Q61 204 43 189Q40 187 38 190T37 196Q43 202 54 210T80 226T110
242T138 256Q148 256 146 247Q111 108 66 14T-30 -137T-135 -219T-243 -244Q-278 -244 -292 -217T-295 -146Q-293 -143 -290 -143T-286 -147Q-291 -176 -268 -194T-196 -213Q-156 -213 -120 -196T-50 -132T16 -2T82 215Z" />
<glyph unicode="k" glyph-name="k" horiz-adv-x="291" d="M176 132Q187 79 204 51T247 22Q258 22 267 27T287 46Q290 47 292 45T294 39Q263 0 216 0Q178 0 159 33T127 134Q124 142 131 144Q149 140 167 143T199 154T222 175T231 204Q231 229 206 229Q171 229 141
196T97 97Q92 80 88 62T81 29Q79 21 77 18T68 10Q60 6 48 3T30 0Q23 0 24 10Q45 121 77 219T150 401T235 550T327 661T418 731T503 756Q528 756 542 746T562 721T564 687T549 654Q542 647 540 657Q545 677 530 696T480 715Q426 715 376 684T278 586T189 416T109
168Q128 205 159 230T234 256Q263 256 272 242T282 213Q282 181 252 159T176 132Z" />
<glyph unicode="l" glyph-name="l" horiz-adv-x="150" d="M458 743Q473 743 482 736T495 716T497 687T485 655Q483 653 480 655T476 660Q478 672 468 680T435 688Q394 688 353 658T272 577T199 462T140 328T101 191T86 67Q86 37 103 37Q115 37 126 47T153 77Q156
79 158 77T160 70Q140 40 113 20T64 0Q45 0 38 11T30 39Q30 86 50 156T103 305T181 462T272 602T368 704T458 743Z" />
<glyph unicode="m" glyph-name="m" horiz-adv-x="462" d="M388 210Q388 231 373 231Q343 231 302 176T226 17Q224 11 210 6T182 0Q170 0 173 9Q179 27 189 54T209 109T226 163T233 203Q233 230 216 230Q190 230 151 177T74 17Q72 11 58 6T33 0Q28 0 25 2T24 9Q32
31 41 57T59 111T75 164T89 213Q92 231 83 231Q75 231 64 220T42 194Q39 192 36 194T35 200Q50 223 71 239T116 256Q132 256 137 246T140 222Q136 200 132 185T121 151Q147 197 178 226T246 256Q264 256 273 246T283 222Q283 183 269 143Q301 198 331 227T405 256Q425
256 433 246T442 224Q442 207 435 187T418 144T401 99T393 55Q393 30 409 30Q425 30 452 63Q455 65 457 62T458 55Q438 30 417 15T376 0Q343 0 343 38Q343 62 350 86T365 133T381 176T388 210Z" />
<glyph unicode="n" glyph-name="n" horiz-adv-x="322" d="M314 70Q316 72 319 70T321 63Q303 38 280 19T233 0Q216 0 207 11T197 40Q197 75 209 116T243 199Q246 206 246 214Q246 224 237 224Q200 224 155 174T72 13Q71 10 66 8T53 4T39 1T28 0Q23 0 21 2T20 9Q37
52 54 103T85 207Q88 217 86 221T79 226Q68 226 58 217T40 196Q37 194 35 197T33 203Q38 210 46 219T66 236T89 250T113 256Q130 256 135 246T138 220Q133 198 128 179T114 135Q126 157 143 178T182 217T229 245T282 256Q294 256 300 250T307 236Q307 222 300 211Q279
173 265 133T250 60Q250 34 267 34Q278 34 289 43T314 70Z" />
<glyph unicode="o" glyph-name="o" horiz-adv-x="258" d="M179 256Q214 256 231 235T248 186Q248 147 233 114T195 55T146 15T99 0Q65 0 48 20T30 73Q30 102 42 134T75 193T123 238T179 256ZM124 31Q155 31 176 63T198 153Q198 183 186 203T151 223Q119 223 99
192T79 101Q79 66 91 49T124 31Z" />
<glyph unicode="p" glyph-name="p" horiz-adv-x="295" d="M236 256Q258 256 271 235T285 184Q285 143 269 110T225 52T163 14T92 0Q75 0 63 4Q46 -45 33 -101T19 -205Q19 -228 41 -223Q49 -222 56 -219T71 -211Q75 -211 75 -215T74 -223Q68 -226 57 -229T32 -236T6
-242T-16 -244Q-24 -244 -29 -240T-34 -228Q-34 -177 -18 -110T25 30Q19 38 18 43Q17 47 33 52Q46 88 61 124T91 195Q110 236 109 246T96 250Q81 242 63 222Q61 220 59 223T57 229Q64 237 75 246T98 264T123 277T144 283Q155 283 158 274T157 253Q144 218 123 174Q133
188 146 202T173 229T204 248T236 256ZM117 20Q141 20 162 29T198 57T223 103T233 167Q233 191 224 206T198 221Q175 221 143 180T84 65Q81 57 78 49T72 31Q88 20 117 20Z" />
<glyph unicode="q" glyph-name="q" horiz-adv-x="302" d="M208 -216Q212 -216 211 -221T208 -228Q193 -233 169 -238T123 -244Q95 -244 101 -206Q105 -179 114 -141T135 -61T163 21T193 93Q180 76 165 60T133 31T102 10T73 0Q51 0 38 15T25 62Q25 96 41 130T84
193T149 238T230 256Q244 256 257 252T279 240Q284 244 291 246T305 248T316 247T321 244Q288 197 261 141T213 27T179 -86T161 -188Q159 -205 162 -213T178 -222Q191 -222 208 -216ZM102 35Q112 35 128 47T161 76T192 111T214 142Q228 166 235 180T252 211Q251
221 241 230T210 240Q181 240 157 227T116 190T89 135T79 69Q79 35 102 35Z" />
<glyph unicode="r" glyph-name="r" horiz-adv-x="212" d="M136 227Q136 212 133 193T125 154Q145 202 169 229T221 256Q236 256 244 249T252 231Q252 221 245 205T232 183Q230 182 228 183T226 187Q226 194 221 199T204 204Q169 204 141 157T88 20Q87 15 81 12T68
6T52 2T38 0Q27 0 32 12Q41 33 49 57T65 107T77 155T85 199Q87 214 87 222T78 230Q68 230 58 222T38 200Q34 197 31 199T29 206Q35 214 43 222T62 238T84 251T108 256Q124 256 130 249T136 227Z" />
<glyph unicode="s" glyph-name="s" horiz-adv-x="206" d="M155 256Q177 256 190 250T204 235Q204 224 199 210T188 187Q186 185 183 186T180 192Q183 199 183 212Q183 226 176 235T155 244Q138 244 128 234T117 204Q117 188 125 174T144 145T164 114T173 76Q173
40 144 20T68 0Q34 0 15 11T-5 35Q-5 39 -2 46T6 61T17 77T30 90Q33 92 35 89T36 83Q30 77 27 71T24 53Q24 35 36 24T67 12Q93 12 107 26T122 62Q122 81 114 97T95 129T77 161T68 195Q68 221 90 238T155 256Z" />
<glyph unicode="t" glyph-name="t" horiz-adv-x="187" d="M222 251Q227 249 226 246T217 240Q202 240 183 239T141 236Q121 187 108 141T95 65Q95 31 121 31Q147 31 179 76Q182 78 184 76T186 69Q169 41 143 21T92 0Q66 0 54 12T41 47Q41 76 55 127T91 231Q65
228 43 223Q38 224 40 228T49 236T65 244T82 248Q86 248 90 248T98 249Q111 278 125 305T153 354Q159 361 169 366T190 375T206 378T212 375Q195 349 179 317T147 250Q166 251 185 251T222 251Z" />
<glyph unicode="u" glyph-name="u" horiz-adv-x="332" d="M74 0Q32 0 32 46Q32 62 35 83T46 126T64 172T88 216Q77 209 67 202T49 186Q46 184 44 187T43 194Q60 212 91 231T152 261Q157 261 159 259T160 252Q128 210 109 161T89 66Q89 37 107 37Q120 37 139 54T179
100T221 165T261 238Q264 244 278 250T308 256Q323 256 317 248Q303 222 293 200T275 155T265 111T261 61Q261 29 278 29Q295 29 316 59Q319 61 322 59T324 53Q307 27 287 14T249 0Q207 0 207 49Q207 100 225 150Q187 81 145 41T74 0Z" />
<glyph unicode="v" glyph-name="v" horiz-adv-x="305" d="M119 14Q105 9 87 5T50 0Q38 0 43 13Q60 55 72 104T89 193Q92 228 78 228Q63 228 41 205Q36 203 33 206T32 213Q50 231 72 243T118 256Q133 256 138 247T143 224Q143 205 139 179T129 125T115 69T100 19Q128
26 155 45T205 89T240 143T254 203Q254 229 238 229Q229 229 224 226T212 213Q209 211 207 214T206 220Q213 231 230 243T267 256Q283 256 291 245T300 216Q300 187 285 158T245 101T187 52T119 14Z" />
<glyph unicode="w" glyph-name="w" horiz-adv-x="419" d="M365 256Q382 256 394 238T406 190Q406 151 389 117T345 56T289 15T234 0Q210 0 199 15T187 56Q187 80 191 111T200 162Q180 136 158 100T114 26Q108 15 95 8T70 0Q62 0 64 11Q71 35 75 70T80 140T76 199T59
229Q52 231 43 225T29 208Q27 206 24 208T22 215Q27 227 45 241T85 256Q109 256 119 231T130 149Q130 123 128 102T123 64Q143 99 161 124T195 170Q201 178 205 188T215 218Q216 224 224 229T242 238T259 241T266 237Q250 204 242 161T234 80Q234 55 246 44T275
32Q293 32 309 43T339 72T360 114T368 166Q368 205 353 216T321 213Q317 212 315 214T314 220Q317 225 324 231T338 243T353 252T365 256Z" />
<glyph unicode="x" glyph-name="x" horiz-adv-x="283" d="M267 65Q270 67 273 65T275 59Q261 37 238 19T190 0Q165 0 147 22T114 94Q88 48 62 24T9 0Q-7 0 -7 21Q-7 49 10 80Q12 82 15 80T17 75Q11 60 15 50T32 40Q68 40 109 110Q102 135 100 156T97 194T95 218T88
227Q80 227 72 216T59 192Q57 189 54 190T51 194Q53 203 59 213T73 233T92 249T115 256Q126 256 131 247T140 224T144 191T149 153Q173 197 203 226T262 256Q276 256 285 248T294 225Q294 216 288 201T274 175Q271 173 269 175T266 180Q276 196 272 208T252 220Q226
220 203 201T153 134Q165 86 183 57T221 28Q234 28 245 39T267 65Z" />
<glyph unicode="y" glyph-name="y" horiz-adv-x="313" d="M257 227Q261 237 279 246T311 256Q320 256 318 249Q296 187 275 129T230 8Q180 -121 106 -182T-53 -243Q-111 -243 -144 -216T-177 -151Q-177 -129 -162 -108T-121 -78Q-117 -77 -115 -80T-115 -86Q-131
-103 -131 -129Q-131 -171 -105 -197T-30 -223Q5 -223 34 -212T88 -173T138 -98T187 20Q199 53 208 79T228 136Q209 106 189 81T149 38T109 10T74 0Q54 0 45 12T36 45Q36 80 50 125T90 213Q79 206 70 200T53 186Q50 184 48 187T47 194Q54 201 66 209T92 226T120
242T149 256Q159 256 157 247Q141 227 129 203T107 154T94 105T89 62Q89 34 107 34Q123 34 145 54T188 103T228 166T257 227Z" />
<glyph unicode="z" glyph-name="z" horiz-adv-x="241" d="M63 67Q86 59 110 54T159 48Q184 48 198 60T221 93Q224 96 227 94T230 88Q197 0 133 0Q112 0 91 5T47 18Q34 22 24 19T-2 0Q-7 0 -9 5T-10 15Q12 37 37 61T87 110T136 157T180 199Q157 204 129 207T81
211Q52 211 41 179Q39 176 35 178T31 183Q44 219 61 237T108 256Q131 256 157 251T198 243Q209 240 217 243T234 253Q237 256 243 256Q255 256 253 247Q198 196 152 153T63 67Z" />
<glyph unicode="{" glyph-name="braceleft" horiz-adv-x="306" d="M207 496Q221 562 264 592T394 622Q402 620 401 615T390 608Q333 608 304 585T263 506Q258 485 256 469T253 436T249 404T242 366Q234 336 214 311T162 272Q187 266 197 243T201 192Q195 166 187
146T171 105T156 65T143 21Q133 -30 151 -55T221 -81Q226 -83 225 -88T214 -95Q135 -95 106 -64T86 16Q92 44 100 64T116 104T132 142T146 185Q150 200 148 211T138 231T121 245T100 253Q95 258 98 265T119 276Q150 284 164 303T189 361Q199 401 199 432T207 496Z"
/>
<glyph unicode="|" glyph-name="bar" horiz-adv-x="170" d="M110 -243H80V645H110V-243Z" />
<glyph unicode="}" glyph-name="braceright" horiz-adv-x="299" d="M193 31Q179 -36 136 -65T6 -95Q-2 -94 -1 -88T10 -81Q67 -81 96 -58T137 21Q142 42 144 58T147 91T151 123T158 161Q166 191 187 215T238 254Q213 261 203 284T200 335Q206 360 213 381T229
421T244 461T257 505Q267 556 249 581T180 607Q175 609 176 614T186 622Q226 622 253 614T295 591T314 556T314 511Q308 483 300 462T284 423T268 385T254 342Q250 327 252 316T262 296T279 282T300 274Q306 269 302 262T281 251Q250 243 236 224T211 166Q206 146
204 129T201 95T198 63T193 31Z" />
<glyph unicode="~" glyph-name="asciitilde" horiz-adv-x="383" d="M51 140Q74 169 100 187T155 206Q173 206 187 200T215 188T244 175T281 169Q301 169 316 178T351 208Q356 210 359 208T361 199Q336 170 309 151T253 132Q231 132 215 138T186 150T159 163T130
169Q107 169 92 160T60 130Q55 128 52 131T51 140Z" />
<glyph unicode="&#xa0;" glyph-name="space" horiz-adv-x="150" />
<glyph unicode="&#xa1;" glyph-name="exclamdown" horiz-adv-x="196" d="M172 255Q181 255 186 250T191 231Q191 225 187 217T176 202T160 189T142 184Q136 184 131 188T126 200Q126 208 130 217T141 235T156 249T172 255ZM-83 -269Q-63 -228 -36 -173T18 -63T70
42T109 124Q117 133 123 131T126 117Q114 90 97 45T62 -50T28 -151T2 -239Q-5 -250 -22 -261T-55 -280T-81 -286T-83 -269Z" />
<glyph unicode="&#xa2;" glyph-name="cent" horiz-adv-x="204" d="M189 311Q204 306 214 296T224 274Q224 269 221 262T214 248T204 236T194 228Q192 227 190 228T188 232Q193 243 190 255T172 274Q151 226 131 180T91 87H98Q118 87 133 95T163 121Q166 123 169
120T170 113Q153 91 129 75T79 57Q67 28 55 -1T32 -63Q26 -72 20 -72T14 -64Q28 -31 40 -1T64 57Q39 59 25 73T11 116Q11 153 26 188T65 250T117 295T173 313Q180 329 187 345T202 379Q207 386 213 385T218 375Q210 358 203 343T189 311ZM79 93Q98 138 116 182T158
278Q155 279 147 279Q108 279 86 243T64 140Q64 106 79 93Z" />
<glyph unicode="&#xa3;" glyph-name="sterling" horiz-adv-x="353" d="M303 313Q318 313 327 306T340 287T343 261T336 231Q333 227 330 228T325 233Q323 251 310 263T270 275Q252 275 240 271T220 256T205 223T191 165Q211 165 234 165T284 164Q289 162 288 159T279
153Q231 153 188 150Q182 120 172 98T149 58Q174 48 202 38T268 28Q287 28 296 32T317 47Q321 49 323 47T324 40Q302 18 282 6T233 -6Q197 -6 170 4T119 26Q99 12 77 6T35 -1Q6 -1 6 15Q6 24 12 33T30 51T58 64T93 69Q107 69 121 66Q127 80 133 100T144 146Q130
144 116 143T87 138Q82 139 85 143T94 151T110 158T127 163Q132 163 137 163T148 164Q156 197 171 224T207 271T252 302T303 313ZM60 18Q84 18 100 34Q75 44 52 44Q36 44 36 32Q36 25 42 22T60 18Z" />
<glyph unicode="&#xa4;" glyph-name="currency" horiz-adv-x="350" d="M335 311Q339 313 345 308T348 298Q333 284 315 268T276 232Q291 211 291 181Q291 149 278 122T241 77Q249 63 256 50T270 25Q273 15 267 6T252 1Q244 15 236 30T219 63Q190 48 156 48Q120
48 101 64Q81 47 63 31T30 1Q23 -2 18 3T17 14Q31 28 48 43T86 78Q70 101 70 138Q70 166 82 191T116 236Q109 250 102 262T87 288Q84 297 91 306T105 312Q113 298 121 283T138 250Q152 258 168 263T204 268Q238 268 262 247Q282 264 300 280T335 311ZM170 70Q189
70 206 78T236 99T257 131T265 169Q265 204 246 224T193 245Q171 245 153 237T122 215T102 183T95 145Q95 113 112 92T170 70Z" />
<glyph unicode="&#xa5;" glyph-name="yen" horiz-adv-x="325" d="M313 313Q329 313 336 300T346 270Q343 261 337 265Q326 285 294 285Q277 285 261 276T230 250T200 213T174 169Q189 169 205 169T241 168Q246 166 245 163T236 157Q218 157 201 157T167 155Q161
142 154 124H224Q229 122 228 118T218 112Q200 112 183 112T149 111Q134 69 134 37Q134 25 137 20T149 15Q164 15 172 19Q175 19 176 16T175 10Q172 8 164 7T145 4T124 1T106 0Q95 0 90 5T85 27Q85 49 90 69T102 107Q84 105 66 103T28 97Q23 98 25 102T34 110T50
117T67 121Q78 123 87 123T108 124Q115 141 116 151Q99 149 82 147T45 141Q40 143 43 147T52 155T68 162T85 166Q93 167 101 167T118 168Q122 219 110 249T71 280Q58 280 49 271Q45 269 43 271T42 277Q53 290 73 301T106 313Q117 313 128 305T148 279T160 234T160
169Q202 247 239 280T313 313Z" />
<glyph unicode="&#xa6;" glyph-name="brokenbar" horiz-adv-x="171" d="M81 313V645H111V313H81ZM111 88V-243H81V88H111Z" />
<glyph unicode="&#xa7;" glyph-name="section" horiz-adv-x="449" d="M413 517Q473 517 501 494T529 436Q529 414 515 394T480 360Q477 358 474 360T472 368Q477 376 480 385T483 410Q483 441 463 464T401 488Q350 488 322 461T294 382Q294 329 304 283T326 192T349
97T359 -9Q359 -66 340 -109T286 -182T202 -227T91 -243Q30 -243 -10 -215T-50 -138Q-50 -112 -35 -87T14 -41Q18 -39 20 -42T21 -51Q1 -72 1 -110Q1 -156 30 -185T110 -214Q164 -214 190 -185T217 -103Q217 -49 207 -3T184 89T162 180T151 283Q151 333 167 376T215
450T296 499T413 517ZM247 350Q247 392 267 427T323 486Q299 483 278 470T240 435T214 384T204 319Q204 260 213 211T234 116T255 26T265 -69Q265 -120 243 -155T188 -211Q212 -207 233 -193T270 -156T296 -103T306 -37Q306 20 297 70T277 166T256 258T247 350Z"
/>
<glyph unicode="&#xa8;" glyph-name="dieresis" horiz-adv-x="174" d="M31 316Q24 316 19 322T14 338Q14 344 17 351T26 366T39 378T56 383Q61 383 65 377T70 365Q70 357 67 349T58 333T45 321T31 316ZM122 316Q115 316 110 322T105 338Q105 344 108 351T118 366T131
378T148 383Q153 383 157 377T162 365Q162 357 159 349T149 333T136 321T122 316Z" />
<glyph unicode="&#xa9;" glyph-name="copyright" horiz-adv-x="341" d="M210 313Q230 313 240 308T251 296Q251 288 247 275T237 255Q230 253 230 260Q235 269 231 278Q228 285 218 290T194 296Q167 296 155 280T142 237Q142 185 186 185Q203 185 212 191T227
206Q229 208 231 206T234 201Q228 189 213 180T176 170Q148 170 133 185T117 226Q117 242 123 257T142 285T172 305T210 313ZM199 349Q172 349 150 339T113 313T90 274T82 228Q82 187 105 163T179 138Q202 138 222 147T258 173T283 211T292 258Q292 301 267 325T199
349ZM160 121Q112 121 86 148T60 221Q60 248 72 274T104 320T153 353T214 365Q235 365 253 358T286 339T308 309T316 270Q316 239 304 212T271 165T222 133T160 121Z" />
<glyph unicode="&#xaa;" glyph-name="ordfeminine" horiz-adv-x="246" d="M201 208Q203 210 205 208T206 203Q194 186 183 179T163 171Q151 171 148 187T153 232Q135 204 120 190T86 171Q72 171 64 182T55 211Q55 230 63 248T86 281T118 304T157 313Q176 313 188
304Q191 307 201 309T216 312Q221 312 221 309Q208 294 199 276T184 243T177 215T179 197Q186 188 201 208ZM101 195Q107 195 116 202T134 222T153 250T170 284Q165 298 145 298Q119 298 103 279T87 219Q87 207 91 201T101 195Z" />
<glyph unicode="&#xab;" glyph-name="guillemotleft" horiz-adv-x="305" d="M190 251Q197 253 199 246T193 233Q179 224 161 210T124 182T88 153T60 128Q81 111 104 87T141 43Q143 38 141 31T135 16T126 5T114 3Q95 32 69 59T22 104Q18 108 19 112T24 121Q62 155
106 189T190 251ZM298 251Q305 253 307 246T301 233Q287 224 269 210T232 182T196 153T168 128Q189 111 212 87T249 43Q251 38 249 31T243 16T234 5T222 3Q203 32 177 59T130 104Q126 108 127 112T132 121Q170 155 214 189T298 251Z" />
<glyph unicode="&#xac;" glyph-name="logicalnot" horiz-adv-x="265" d="M233 235Q241 233 238 221Q235 215 231 204T221 180T211 153T201 126Q198 121 191 119T176 116T162 118T156 126Q159 135 164 148T174 176T183 202T190 220Q172 220 149 220T101 220T55
219T20 217Q14 219 16 224T28 231Q44 232 72 232T130 233T188 234T233 235Z" />
<glyph unicode="&#xae;" glyph-name="registered" horiz-adv-x="341" d="M214 365Q235 365 253 358T286 339T308 309T316 270Q316 239 304 212T271 165T222 133T160 121Q111 121 86 148T60 221Q60 248 71 274T104 320T153 353T214 365ZM178 138Q201 138 221 147T257
173T282 211T291 258Q291 301 266 325T199 349Q172 349 150 339T113 313T90 274T82 228Q82 187 104 163T178 138ZM246 278Q246 243 195 234Q201 208 207 197T224 186Q232 186 237 191Q239 192 240 190T241 184Q236 179 228 175T210 170Q193 170 185 185T172 233Q172
238 173 239Q176 241 181 243T189 246Q191 248 193 247T198 246Q207 244 214 250Q222 255 222 268Q222 298 184 298Q179 289 173 275T161 244T150 211T142 179Q139 175 132 173T117 170Q114 170 114 173Q122 204 133 235T159 290Q162 295 170 298Q160 296 151 294T132
287Q128 287 131 292T139 300Q167 313 201 313Q223 313 234 303T246 278Z" />
<glyph unicode="&#xb0;" glyph-name="degree" horiz-adv-x="112" d="M136 373Q119 373 109 362T98 335Q98 322 104 314T127 306Q141 306 152 317T163 344Q163 373 136 373ZM120 289Q100 289 90 300T80 331Q80 354 97 372T142 391Q159 391 170 380T182 351Q182
325 165 307T120 289Z" />
<glyph unicode="&#xb1;" glyph-name="plusminus" horiz-adv-x="301" d="M271 156Q275 156 275 153T271 145T263 138T252 133H170Q157 97 145 61Q143 55 138 51T127 46T117 45T113 50Q120 73 126 93T139 133Q118 132 97 132T56 131Q50 133 55 143T86 157Q98 158
114 158T148 158Q156 179 163 200T179 243Q180 247 185 250T197 255T208 256T213 251Q203 225 195 202T179 158Q202 157 225 157T271 156ZM225 25Q229 25 229 22T226 14T218 6T207 2Q161 2 110 2T11 0Q5 2 10 12T41 26Q56 26 78 26T124 27T175 27T225 25Z" />
<glyph unicode="&#xb2;" glyph-name="twosuperior" horiz-adv-x="223" d="M153 313Q174 313 186 304T198 277Q198 262 192 250T173 227T142 205T100 179Q124 171 154 171Q174 171 181 182Q183 184 185 183T186 177Q178 163 167 155T139 147Q124 147 113 150T93
155T77 158T63 155L51 147Q48 146 46 150T48 158Q73 174 94 187T131 213T156 239T165 268Q165 280 159 287T136 295Q120 295 110 283T96 257Q94 254 91 255T88 261Q92 280 109 296T153 313Z" />
<glyph unicode="&#xb3;" glyph-name="threesuperior" horiz-adv-x="200" d="M133 313Q153 313 163 306T173 287Q173 273 159 262T125 243Q144 248 159 240T174 214Q174 200 166 188T145 167T116 153T81 148Q61 148 52 157T47 184Q49 189 53 185Q56 176 68 168T101
160Q120 160 130 171T140 201Q140 215 133 223T112 231Q99 231 90 225Q87 224 86 228T87 234Q119 245 130 256T141 280Q141 289 136 295T122 301Q110 301 101 294T88 278Q86 276 83 278T81 283Q87 294 100 303T133 313Z" />
<glyph unicode="&#xb4;" glyph-name="acute" horiz-adv-x="157" d="M88 383Q95 387 109 382T138 370Q141 369 141 366T140 361Q130 354 116 348T85 335T53 324T24 314Q20 314 20 318T23 325Q37 334 55 350T88 383Z" />
<glyph unicode="&#xb5;" glyph-name="mu" horiz-adv-x="356" d="M338 50Q341 52 344 50T345 44Q331 24 311 12T273 0Q233 0 233 48Q233 98 253 155Q234 118 213 90T173 41T136 11T108 0Q94 0 89 19T95 81Q76 35 61 -21T44 -125Q44 -129 38 -133T24 -142T6 -149T-10
-152Q-20 -152 -19 -142Q-10 -97 4 -49T37 48T77 143T122 228Q126 232 133 237T148 246T163 252T176 256Q181 256 183 253T184 247Q155 205 136 164T117 77Q117 47 135 47Q148 47 167 63T207 105T249 166T288 238Q289 241 295 244T308 250T322 254T334 256Q348
256 344 248Q329 222 319 199T301 154T291 110T287 60Q287 28 304 28Q319 28 338 50Z" />
<glyph unicode="&#xb6;" glyph-name="paragraph" horiz-adv-x="425" d="M457 319Q462 317 460 310T450 300Q441 300 432 300T415 299Q403 254 390 206T362 110T332 19T302 -58Q260 -154 187 -198T14 -243Q-38 -243 -65 -223T-93 -168Q-93 -136 -74 -117T-29 -90Q-24
-90 -23 -95T-24 -103Q-32 -109 -36 -118T-40 -144Q-40 -179 -22 -201T39 -223Q69 -223 94 -192T149 -85Q157 -63 164 -41T180 5Q142 15 118 42T93 110Q93 156 119 194T194 260T309 303T457 319ZM247 -68Q261 -36 276 6T305 97T334 195T361 294Q344 292 330 289T303
283Q291 238 278 187T250 87T221 -8T192 -87Q171 -138 149 -169T94 -217Q142 -206 179 -172T247 -68Z" />
<glyph unicode="&#xb7;" glyph-name="middot" horiz-adv-x="120" d="M50 117Q41 117 36 122T30 141Q30 147 34 155T45 170T61 183T79 188Q85 188 90 184T95 172Q95 164 91 154T80 136T65 123T50 117Z" />
<glyph unicode="&#xb8;" glyph-name="cedilla" horiz-adv-x="115" d="M94 4Q83 -4 79 -15T78 -37Q87 -59 73 -84T24 -123Q21 -123 21 -120T22 -113Q48 -101 53 -87T52 -53Q47 -36 53 -21T86 10Q91 11 93 9T94 4Z" />
<glyph unicode="&#xb9;" glyph-name="onesuperior" horiz-adv-x="182" d="M59 146Q50 146 50 153Q63 188 79 223T110 289Q97 285 87 284T66 280Q64 281 64 284T67 289Q85 292 107 300T149 319Q152 320 154 319T156 314Q133 279 115 235T85 156Q82 152 75 149T59 146Z" />
<glyph unicode="&#xba;" glyph-name="ordmasculine" horiz-adv-x="195" d="M133 313Q150 313 160 299T171 268Q171 250 164 233T144 202T118 180T88 171Q71 171 61 182T50 215Q50 233 56 251T74 282T101 304T133 313ZM107 193Q121 193 131 207T141 248Q141 268
134 279T114 291Q81 291 81 234Q81 214 88 204T107 193Z" />
<glyph unicode="&#xbb;" glyph-name="guillemotright" horiz-adv-x="292" d="M-3 3Q-9 1 -11 7T-6 21Q6 32 22 46T55 74T90 102T121 126Q110 134 99 146T76 172T55 200T38 226Q36 231 41 237T52 247T66 253T79 251Q94 222 116 195T161 149Q165 146 164 141T159
133Q118 104 74 69T-3 3ZM105 3Q99 1 97 7T102 21Q114 32 130 46T163 74T198 102T229 126Q218 134 207 146T184 172T163 200T146 226Q144 231 149 237T160 247T174 253T187 251Q202 222 224 195T269 149Q273 146 272 141T267 133Q226 104 182 69T105 3Z" />
<glyph unicode="&#xbc;" glyph-name="onequarter" horiz-adv-x="439" d="M366 344Q373 349 382 346T388 335Q344 286 304 240T224 148T147 57T71 -37Q62 -45 53 -42T48 -30Q91 22 127 65T200 151T275 240T366 344ZM63 97Q52 97 54 105Q70 149 93 197T133 284Q117
280 104 277T77 272Q75 273 74 276T78 282Q101 286 130 295T182 317Q186 319 189 317T191 311Q176 288 163 262T138 210T117 157T100 108Q97 104 86 101T63 97ZM426 211Q418 200 411 188T396 160Q387 142 377 120T357 75Q375 75 384 80T399 93Q401 95 403 93T405
88Q397 74 383 65T349 53Q344 42 341 32T333 10Q331 6 318 3T298 0Q293 0 293 5Q298 18 302 30T311 55Q283 59 262 63T234 63L231 60Q228 58 225 60T224 67Q242 85 265 105T315 146T368 184T420 217Q424 218 426 216T426 211ZM320 76Q341 128 366 170Q310 132 260
86Q271 83 287 81T320 76Z" />
<glyph unicode="&#xbd;" glyph-name="onehalf" horiz-adv-x="449" d="M388 335Q344 286 304 240T224 148T147 57T71 -37Q62 -45 53 -42T48 -30Q91 22 127 65T199 151T275 240T366 344Q373 349 382 346T388 335ZM63 97Q52 97 54 105Q70 149 92 197T133 284Q117
280 103 277T77 272Q74 273 74 276T78 282Q101 286 130 295T182 317Q186 319 189 317T191 311Q176 288 163 262T138 210T117 157T100 108Q97 104 86 101T63 97ZM373 211Q399 211 414 197T429 163Q429 146 420 132T393 104T351 77T295 47Q309 42 325 39T364 35Q378
35 385 40T399 54Q402 57 405 54T407 46Q393 26 376 13T334 0Q315 0 301 3T276 10T256 15T238 11Q232 7 229 5T222 0Q217 -1 216 4T218 14Q250 33 280 50T333 83T371 117T385 154Q385 170 377 179T348 189Q326 189 314 176T296 139Q294 136 289 138T284 145Q289
170 312 190T373 211Z" />
<glyph unicode="&#xbe;" glyph-name="threequarters" horiz-adv-x="496" d="M423 344Q430 349 439 346T445 335Q401 286 361 240T281 148T204 57T128 -37Q119 -45 110 -42T105 -30Q148 22 184 65T257 151T332 240T423 344ZM483 211Q475 200 468 188T453 160Q444
142 434 120T414 75Q432 75 441 80T456 93Q458 95 460 93T462 88Q454 74 440 65T406 53Q401 42 398 32T390 10Q388 6 375 3T355 0Q350 0 350 5Q355 18 359 30T368 55Q340 59 319 63T291 63L288 60Q285 58 282 60T281 67Q299 85 322 105T372 146T425 184T477 217Q481
218 483 216T483 211ZM377 76Q398 128 423 170Q367 132 317 86Q328 83 344 81T377 76ZM210 181Q210 164 201 149T175 123T138 104T94 97Q73 97 61 108T51 143Q52 145 54 146T58 145Q63 132 77 122T116 112Q142 112 156 128T170 167Q170 184 162 194T136 205Q126
205 119 203T106 196Q102 195 101 200T102 207Q140 221 157 234T174 267Q174 292 148 292Q131 292 121 284T102 262Q99 259 96 262T94 270Q102 284 119 296T161 308Q187 308 199 298T211 274Q211 257 193 243T150 218Q178 225 194 214T210 181Z" />
<glyph unicode="&#xbf;" glyph-name="questiondown" horiz-adv-x="291" d="M267 255Q276 255 281 250T286 231Q286 225 282 217T272 202T256 189T238 184Q232 184 227 188T222 200Q222 208 226 217T237 235T251 249T267 255ZM45 -264Q22 -264 3 -257T-29 -237T-50
-208T-58 -174Q-58 -135 -44 -108T-7 -62T43 -28T97 -1T144 27T177 65Q185 82 179 94T156 109Q149 110 153 115T167 126T188 136T206 139Q215 137 221 129T228 110T224 85T206 58Q179 29 143 9T75 -32T21 -80T-2 -149Q-2 -184 17 -206T73 -229Q110 -229 133 -209T163
-159Q168 -154 174 -159T179 -169Q172 -188 159 -205T128 -235T89 -256T45 -264Z" />
<glyph unicode="&#xc0;" glyph-name="Agrave" horiz-adv-x="1015" d="M996 669Q998 667 996 664T988 660Q976 663 959 669T925 682T892 696T865 709Q863 710 863 712T865 717Q875 725 889 729T905 731Q922 717 945 701T996 669ZM1021 585Q1024 583 1024 580T1018
570Q985 534 959 488T915 386T887 270T877 145Q877 97 888 71T929 44Q969 44 1005 100Q1008 102 1011 100T1013 94Q987 52 956 26T897 0Q857 0 837 31T816 119Q816 199 834 282Q787 282 742 281T653 278Q620 243 590 212T530 155Q450 82 366 41T180 0Q126 0 94
24T51 85T51 166T95 251Q98 253 102 251T105 241Q82 216 80 184T93 123T145 75T233 55Q318 55 392 90T533 185Q556 205 579 228T627 276Q592 274 561 272T503 265Q498 266 501 270T510 278T524 286T541 291Q554 292 581 292T644 294Q700 352 768 419T931 561Q864
583 793 597T655 612Q580 612 532 571T473 440Q471 435 468 436T463 442Q475 540 536 592T694 644Q735 644 780 639T868 625T951 606T1021 585ZM837 295Q853 367 882 435T953 560Q865 489 796 422T669 294Q717 295 763 295T837 295Z" />
<glyph unicode="&#xc1;" glyph-name="Aacute" horiz-adv-x="1015" d="M988 734Q993 737 1006 733T1029 724Q1031 722 1032 720T1030 715Q1020 708 1005 700T972 685T936 670T902 658Q898 658 898 662T901 669Q921 681 945 697T988 734ZM1021 585Q1024 583 1024
580T1018 570Q985 534 959 488T915 386T887 270T877 145Q877 97 888 71T929 44Q969 44 1005 100Q1008 102 1011 100T1013 94Q987 52 956 26T897 0Q857 0 837 31T816 119Q816 199 834 282Q787 282 742 281T653 278Q620 243 590 212T530 155Q450 82 366 41T180 0Q126
0 94 24T51 85T51 166T95 251Q98 253 102 251T105 241Q82 216 80 184T93 123T145 75T233 55Q318 55 392 90T533 185Q556 205 579 228T627 276Q592 274 561 272T503 265Q498 266 501 270T510 278T524 286T541 291Q554 292 581 292T644 294Q700 352 768 419T931 561Q864
583 793 597T655 612Q580 612 532 571T473 440Q471 435 468 436T463 442Q475 540 536 592T694 644Q735 644 780 639T868 625T951 606T1021 585ZM837 295Q853 367 882 435T953 560Q865 489 796 422T669 294Q717 295 763 295T837 295Z" />
<glyph unicode="&#xc2;" glyph-name="Acircumflex" horiz-adv-x="1015" d="M973 746Q978 751 985 745Q998 728 1018 711T1059 684Q1064 679 1055 674T1033 671Q1014 679 999 690T967 715Q961 710 951 704T931 692T910 679T892 670Q882 670 887 679Q904 689 930
708T973 746ZM1021 585Q1024 583 1024 580T1018 570Q985 534 959 488T915 386T887 270T877 145Q877 97 888 71T929 44Q969 44 1005 100Q1008 102 1011 100T1013 94Q987 52 956 26T897 0Q857 0 837 31T816 119Q816 199 834 282Q787 282 742 281T653 278Q620 243
590 212T530 155Q450 82 366 41T180 0Q126 0 94 24T51 85T51 166T95 251Q98 253 102 251T105 241Q82 216 80 184T93 123T145 75T233 55Q318 55 392 90T533 185Q556 205 579 228T627 276Q592 274 561 272T503 265Q498 266 501 270T510 278T524 286T541 291Q554 292
581 292T644 294Q700 352 768 419T931 561Q864 583 793 597T655 612Q580 612 532 571T473 440Q471 435 468 436T463 442Q475 540 536 592T694 644Q735 644 780 639T868 625T951 606T1021 585ZM837 295Q853 367 882 435T953 560Q865 489 796 422T669 294Q717 295
763 295T837 295Z" />
<glyph unicode="&#xc3;" glyph-name="Atilde" horiz-adv-x="1015" d="M870 673Q881 689 899 704T935 719Q947 719 956 714T976 702T999 690T1028 684Q1046 684 1057 695T1079 728Q1081 730 1084 729T1087 724Q1075 697 1058 681T1011 665Q997 665 986 670T964
681T943 693T923 698Q910 698 899 690T877 667Q873 665 871 667T870 673ZM1021 585Q1024 583 1024 580T1018 570Q985 534 959 488T915 386T887 270T877 145Q877 97 888 71T929 44Q969 44 1005 100Q1008 102 1011 100T1013 94Q987 52 956 26T897 0Q857 0 837 31T816
119Q816 199 834 282Q787 282 742 281T653 278Q620 243 590 212T530 155Q450 82 366 41T180 0Q126 0 94 24T51 85T51 166T95 251Q98 253 102 251T105 241Q82 216 80 184T93 123T145 75T233 55Q318 55 392 90T533 185Q556 205 579 228T627 276Q592 274 561 272T503
265Q498 266 501 270T510 278T524 286T541 291Q554 292 581 292T644 294Q700 352 768 419T931 561Q864 583 793 597T655 612Q580 612 532 571T473 440Q471 435 468 436T463 442Q475 540 536 592T694 644Q735 644 780 639T868 625T951 606T1021 585ZM837 295Q853
367 882 435T953 560Q865 489 796 422T669 294Q717 295 763 295T837 295Z" />
<glyph unicode="&#xc4;" glyph-name="Adieresis" horiz-adv-x="1015" d="M937 667Q926 667 926 684Q926 694 936 707T962 721Q971 721 971 708Q971 694 961 681T937 667ZM1014 667Q1002 667 1002 684Q1002 694 1012 707T1037 721Q1046 721 1046 708Q1046 694 1036
681T1014 667ZM1021 585Q1024 583 1024 580T1018 570Q985 534 959 488T915 386T887 270T877 145Q877 97 888 71T929 44Q969 44 1005 100Q1008 102 1011 100T1013 94Q987 52 956 26T897 0Q857 0 837 31T816 119Q816 199 834 282Q787 282 742 281T653 278Q620 243
590 212T530 155Q450 82 366 41T180 0Q126 0 94 24T51 85T51 166T95 251Q98 253 102 251T105 241Q82 216 80 184T93 123T145 75T233 55Q318 55 392 90T533 185Q556 205 579 228T627 276Q592 274 561 272T503 265Q498 266 501 270T510 278T524 286T541 291Q554 292
581 292T644 294Q700 352 768 419T931 561Q864 583 793 597T655 612Q580 612 532 571T473 440Q471 435 468 436T463 442Q475 540 536 592T694 644Q735 644 780 639T868 625T951 606T1021 585ZM837 295Q853 367 882 435T953 560Q865 489 796 422T669 294Q717 295
763 295T837 295Z" />
<glyph unicode="&#xc5;" glyph-name="Aring" horiz-adv-x="1015" d="M989 753Q973 753 965 743T956 714Q956 700 963 691T986 682Q1001 682 1009 693T1018 722Q1018 753 989 753ZM973 670Q957 670 949 680T940 706Q940 729 957 747T1001 765Q1018 765 1026 755T1034
730Q1034 707 1017 689T973 670ZM1021 585Q1024 583 1024 580T1018 570Q985 534 959 488T915 386T887 270T877 145Q877 97 888 71T929 44Q969 44 1005 100Q1008 102 1011 100T1013 94Q987 52 956 26T897 0Q857 0 837 31T816 119Q816 199 834 282Q787 282 742 281T653
278Q620 243 590 212T530 155Q450 82 366 41T180 0Q126 0 94 24T51 85T51 166T95 251Q98 253 102 251T105 241Q82 216 80 184T93 123T145 75T233 55Q318 55 392 90T533 185Q556 205 579 228T627 276Q592 274 561 272T503 265Q498 266 501 270T510 278T524 286T541
291Q554 292 581 292T644 294Q700 352 768 419T931 561Q864 583 793 597T655 612Q580 612 532 571T473 440Q471 435 468 436T463 442Q475 540 536 592T694 644Q735 644 780 639T868 625T951 606T1021 585ZM837 295Q853 367 882 435T953 560Q865 489 796 422T669
294Q717 295 763 295T837 295Z" />
<glyph unicode="&#xc6;" glyph-name="AE" horiz-adv-x="1324" d="M1244 644Q1271 644 1295 639T1337 626T1366 608T1377 587Q1377 579 1373 567T1364 543T1353 521T1344 506Q1342 504 1339 506T1337 512Q1342 523 1344 536T1340 563Q1329 588 1297 605T1220 623Q1160
623 1130 596T1100 523Q1100 488 1123 464T1204 422Q1207 420 1204 415T1195 403T1182 391T1171 385Q1060 390 1000 338T939 182Q939 147 949 117T979 65T1026 31T1089 18Q1171 18 1223 56T1298 179Q1301 184 1304 182T1309 174Q1296 118 1280 81T1250 38Q1208
19 1165 10T1063 0Q970 0 921 41T872 158Q872 187 873 218T880 282Q827 282 769 281T653 277Q620 242 590 212T531 155Q451 82 367 41T181 0Q127 0 95 24T51 85T51 166T95 251Q99 253 103 251T106 241Q83 216 81 184T94 123T146 75T234 55Q319 55 393 90T534 185Q557
205 579 227T627 276Q591 274 560 272T504 265Q499 266 502 270T511 278T525 286T542 291Q553 292 581 292T644 294Q701 352 769 419T932 561Q865 583 794 597T656 612Q581 612 533 571T474 440Q472 435 469 436T464 442Q475 540 536 592T695 644Q736 644 780 639T866
625T947 606T1016 585Q1019 583 1021 581T1019 570Q985 507 968 448T942 318Q976 350 1022 372T1124 405Q1086 421 1063 448T1040 510Q1040 537 1053 561T1093 604T1157 633T1244 644ZM670 294Q699 294 730 294T789 295T841 295T881 295Q891 367 909 436T954 560Q866
489 797 422T670 294Z" />
<glyph unicode="&#xc7;" glyph-name="Ccedilla" horiz-adv-x="578" d="M486 644Q522 644 552 641T604 630T638 614T651 592Q651 584 647 571T638 543T625 515T612 493Q609 491 605 493T602 500Q623 537 611 557Q598 578 556 597T451 617Q373 617 315 593T217 525T159
417T140 276Q140 220 155 173T198 92T269 38T365 18Q437 18 485 62T553 181Q556 185 561 184T566 178Q562 157 554 132T537 84T520 45T505 26Q476 15 439 9T361 0Q354 -6 353 -15T354 -32Q363 -55 349 -80T300 -119Q297 -118 297 -115T298 -109Q324 -97 329 -83T328
-49Q324 -36 327 -24T344 0Q206 2 138 66T69 246Q69 331 100 404T186 530T317 613T486 644Z" />
<glyph unicode="&#xc8;" glyph-name="Egrave" horiz-adv-x="513" d="M469 669Q471 667 469 664T461 660Q449 663 432 669T398 682T365 696T338 709Q336 710 336 712T338 717Q348 725 362 729T378 731Q395 717 418 701T469 669ZM288 523Q288 488 312 464T393 422Q396
420 393 415T383 403T370 391T359 385Q248 390 188 338T127 182Q127 147 137 117T167 65T214 31T277 18Q359 18 411 56T486 179Q489 184 492 182T497 174Q485 118 469 81T438 38Q396 19 353 10T252 0Q158 0 109 41T60 158Q60 206 79 246T131 319T211 373T312 405Q274
421 251 448T228 510Q228 537 241 561T281 604T345 633T432 644Q459 644 483 639T525 626T554 608T565 587Q565 579 562 567T553 543T542 521T533 506Q530 504 527 506T525 512Q531 523 533 536T529 563Q517 588 485 605T408 623Q348 623 318 596T288 523Z" />
<glyph unicode="&#xc9;" glyph-name="Eacute" horiz-adv-x="513" d="M432 734Q437 737 450 733T473 724Q475 722 476 720T474 715Q464 708 449 700T416 685T380 670T346 658Q342 658 342 662T345 669Q365 681 389 697T432 734ZM288 523Q288 488 312 464T393 422Q396
420 393 415T383 403T370 391T359 385Q248 390 188 338T127 182Q127 147 137 117T167 65T214 31T277 18Q359 18 411 56T486 179Q489 184 492 182T497 174Q485 118 469 81T438 38Q396 19 353 10T252 0Q158 0 109 41T60 158Q60 206 79 246T131 319T211 373T312 405Q274
421 251 448T228 510Q228 537 241 561T281 604T345 633T432 644Q459 644 483 639T525 626T554 608T565 587Q565 579 562 567T553 543T542 521T533 506Q530 504 527 506T525 512Q531 523 533 536T529 563Q517 588 485 605T408 623Q348 623 318 596T288 523Z" />
<glyph unicode="&#xca;" glyph-name="Ecircumflex" horiz-adv-x="513" d="M391 746Q396 751 403 745Q416 728 436 711T477 684Q482 679 473 674T451 671Q432 679 417 690T385 715Q379 710 369 704T349 692T328 679T310 670Q300 670 305 679Q322 689 348 708T391
746ZM288 523Q288 488 312 464T393 422Q396 420 393 415T383 403T370 391T359 385Q248 390 188 338T127 182Q127 147 137 117T167 65T214 31T277 18Q359 18 411 56T486 179Q489 184 492 182T497 174Q485 118 469 81T438 38Q396 19 353 10T252 0Q158 0 109 41T60
158Q60 206 79 246T131 319T211 373T312 405Q274 421 251 448T228 510Q228 537 241 561T281 604T345 633T432 644Q459 644 483 639T525 626T554 608T565 587Q565 579 562 567T553 543T542 521T533 506Q530 504 527 506T525 512Q531 523 533 536T529 563Q517 588
485 605T408 623Q348 623 318 596T288 523Z" />
<glyph unicode="&#xcb;" glyph-name="Edieresis" horiz-adv-x="513" d="M361 667Q350 667 350 684Q350 694 360 707T386 721Q395 721 395 708Q395 694 385 681T361 667ZM438 667Q426 667 426 684Q426 694 436 707T461 721Q470 721 470 708Q470 694 460 681T438
667ZM288 523Q288 488 312 464T393 422Q396 420 393 415T383 403T370 391T359 385Q248 390 188 338T127 182Q127 147 137 117T167 65T214 31T277 18Q359 18 411 56T486 179Q489 184 492 182T497 174Q485 118 469 81T438 38Q396 19 353 10T252 0Q158 0 109 41T60
158Q60 206 79 246T131 319T211 373T312 405Q274 421 251 448T228 510Q228 537 241 561T281 604T345 633T432 644Q459 644 483 639T525 626T554 608T565 587Q565 579 562 567T553 543T542 521T533 506Q530 504 527 506T525 512Q531 523 533 536T529 563Q517 588
485 605T408 623Q348 623 318 596T288 523Z" />
<glyph unicode="&#xcc;" glyph-name="Igrave" horiz-adv-x="593" d="M615 669Q617 667 615 664T607 660Q595 663 578 669T544 682T511 696T484 709Q482 710 482 712T484 717Q494 725 508 729T524 731Q541 717 564 701T615 669ZM777 645Q781 643 780 638T773 626T762
613T749 604Q727 598 711 587T682 554T656 500T631 414Q596 279 530 185Q543 187 554 191T571 198Q574 199 575 197T574 191Q566 186 552 181T523 174Q460 89 378 45T201 0Q128 0 89 26T50 93Q50 128 78 159T166 206Q171 205 171 202T170 197Q109 177 109 121Q109
79 142 54T234 29Q312 29 374 61T483 171Q432 174 405 210T378 303Q378 365 411 426T499 536T626 615T777 645ZM569 392Q580 437 593 469T622 524T658 565T706 597Q637 589 579 560T479 491T414 402T391 307Q391 247 417 216T488 181Q535 261 569 392Z" />
<glyph unicode="&#xcd;" glyph-name="Iacute" horiz-adv-x="593" d="M631 734Q636 737 649 733T672 724Q674 722 675 720T673 715Q663 708 648 700T615 685T579 670T545 658Q541 658 541 662T544 669Q564 681 588 697T631 734ZM777 645Q781 643 780 638T773 626T762
613T749 604Q727 598 711 587T682 554T656 500T631 414Q596 279 530 185Q543 187 554 191T571 198Q574 199 575 197T574 191Q566 186 552 181T523 174Q460 89 378 45T201 0Q128 0 89 26T50 93Q50 128 78 159T166 206Q171 205 171 202T170 197Q109 177 109 121Q109
79 142 54T234 29Q312 29 374 61T483 171Q432 174 405 210T378 303Q378 365 411 426T499 536T626 615T777 645ZM569 392Q580 437 593 469T622 524T658 565T706 597Q637 589 579 560T479 491T414 402T391 307Q391 247 417 216T488 181Q535 261 569 392Z" />
<glyph unicode="&#xce;" glyph-name="Icircumflex" horiz-adv-x="593" d="M589 746Q594 751 601 745Q614 728 634 711T675 684Q680 679 671 674T649 671Q630 679 615 690T583 715Q577 710 567 704T547 692T526 679T508 670Q498 670 503 679Q520 689 546 708T589
746ZM777 645Q781 643 780 638T773 626T762 613T749 604Q727 598 711 587T682 554T656 500T631 414Q596 279 530 185Q543 187 554 191T571 198Q574 199 575 197T574 191Q566 186 552 181T523 174Q460 89 378 45T201 0Q128 0 89 26T50 93Q50 128 78 159T166 206Q171
205 171 202T170 197Q109 177 109 121Q109 79 142 54T234 29Q312 29 374 61T483 171Q432 174 405 210T378 303Q378 365 411 426T499 536T626 615T777 645ZM569 392Q580 437 593 469T622 524T658 565T706 597Q637 589 579 560T479 491T414 402T391 307Q391 247 417
216T488 181Q535 261 569 392Z" />
<glyph unicode="&#xcf;" glyph-name="Idieresis" horiz-adv-x="593" d="M545 667Q534 667 534 684Q534 694 544 707T570 721Q579 721 579 708Q579 694 569 681T545 667ZM622 667Q610 667 610 684Q610 694 620 707T645 721Q654 721 654 708Q654 694 644 681T622
667ZM777 645Q781 643 780 638T773 626T762 613T749 604Q727 598 711 587T682 554T656 500T631 414Q596 279 530 185Q543 187 554 191T571 198Q574 199 575 197T574 191Q566 186 552 181T523 174Q460 89 378 45T201 0Q128 0 89 26T50 93Q50 128 78 159T166 206Q171
205 171 202T170 197Q109 177 109 121Q109 79 142 54T234 29Q312 29 374 61T483 171Q432 174 405 210T378 303Q378 365 411 426T499 536T626 615T777 645ZM569 392Q580 437 593 469T622 524T658 565T706 597Q637 589 579 560T479 491T414 402T391 307Q391 247 417
216T488 181Q535 261 569 392Z" />
<glyph unicode="&#xd0;" glyph-name="Eth" horiz-adv-x="817" d="M587 594Q636 567 677 530T749 447T795 353T812 255Q812 200 791 153T732 72T641 19T522 0Q484 0 451 5T389 17T332 34T278 52Q239 25 193 13T89 0Q57 0 44 7T30 28Q30 41 40 56T67 85T108 106T161
115Q199 115 231 108T296 90Q323 121 347 168T398 285Q362 283 329 280T271 271Q267 273 272 279T289 289Q304 291 335 293T402 298Q409 315 415 334T428 373Q448 434 471 482T525 565Q485 585 441 595T348 606Q304 606 272 593T218 559T182 508T164 447Q162 444
160 445T156 450Q160 492 178 527T226 589T299 629T394 644Q440 644 483 634T566 605Q617 646 691 662Q694 662 694 659T691 653Q633 637 587 594ZM123 18Q165 18 199 26T262 57Q229 68 194 74T117 81Q94 81 83 73T72 51Q72 36 84 27T123 18ZM572 33Q667 33 712
84T757 224Q757 271 742 318T700 408T635 488T550 552Q527 521 508 482T473 393Q465 367 457 344T440 299Q475 301 506 301T560 300Q562 298 562 296T555 291Q529 291 499 290T436 287Q409 218 380 169T315 84Q340 75 367 66T424 50T491 38T572 33Z" />
<glyph unicode="&#xd1;" glyph-name="Ntilde" horiz-adv-x="993" d="M773 673Q784 689 802 704T838 719Q850 719 859 714T879 702T902 690T931 684Q949 684 960 695T982 728Q984 730 987 729T990 724Q978 697 961 681T914 665Q900 665 889 670T867 681T846 693T826
698Q813 698 802 690T780 667Q776 665 774 667T773 673ZM1219 644Q1251 644 1265 619T1280 542Q1279 536 1274 535T1267 540Q1265 556 1252 571T1209 586Q1177 586 1144 561T1080 494T1021 396T972 276T937 147T922 18Q922 7 920 4T913 0Q908 0 906 4T902 15Q857
180 793 307T648 509Q626 386 586 291T491 132T370 34T229 0Q182 0 147 11T89 43T55 90T43 149Q43 189 62 227T119 290Q124 292 126 288T126 279Q108 261 98 239T87 191Q87 128 129 90T255 52Q399 52 496 170T628 527Q583 563 536 582T438 602Q390 602 359 580T313
532Q310 529 307 530T302 536Q311 555 328 574T367 609T417 634T475 644Q517 644 557 630T636 588Q638 594 642 601T650 615T658 623T663 622Q662 609 661 597T658 572Q702 537 741 489T814 383T875 263T921 134Q929 189 945 248T984 363T1034 471T1092 560T1155
621T1219 644Z" />
<glyph unicode="&#xd2;" glyph-name="Ograve" horiz-adv-x="646" d="M494 669Q496 667 494 664T486 660Q474 663 457 669T423 682T390 696T363 709Q361 710 361 712T363 717Q373 725 387 729T403 731Q420 717 443 701T494 669ZM466 644Q520 644 561 627T632 578T676
502T691 406Q691 325 659 252T572 122T449 33T305 0Q248 0 205 17T131 66T86 140T70 232Q70 308 102 382T189 514T315 608T466 644ZM360 36Q412 36 460 60T547 129T608 236T631 376Q631 424 619 466T580 539T515 588T422 606Q355 606 302 580T211 507T153 399T132
265Q132 213 147 171T191 99T262 53T360 36Z" />
<glyph unicode="&#xd3;" glyph-name="Oacute" horiz-adv-x="646" d="M468 734Q473 737 486 733T509 724Q511 722 512 720T510 715Q500 708 485 700T452 685T416 670T382 658Q378 658 378 662T381 669Q401 681 425 697T468 734ZM466 644Q520 644 561 627T632 578T676
502T691 406Q691 325 659 252T572 122T449 33T305 0Q248 0 205 17T131 66T86 140T70 232Q70 308 102 382T189 514T315 608T466 644ZM360 36Q412 36 460 60T547 129T608 236T631 376Q631 424 619 466T580 539T515 588T422 606Q355 606 302 580T211 507T153 399T132
265Q132 213 147 171T191 99T262 53T360 36Z" />
<glyph unicode="&#xd4;" glyph-name="Ocircumflex" horiz-adv-x="646" d="M450 746Q455 751 462 745Q475 728 495 711T536 684Q541 679 532 674T510 671Q491 679 476 690T444 715Q438 710 428 704T408 692T387 679T369 670Q359 670 364 679Q381 689 407 708T450
746ZM466 644Q520 644 561 627T632 578T676 502T691 406Q691 325 659 252T572 122T449 33T305 0Q248 0 205 17T131 66T86 140T70 232Q70 308 102 382T189 514T315 608T466 644ZM360 36Q412 36 460 60T547 129T608 236T631 376Q631 424 619 466T580 539T515 588T422
606Q355 606 302 580T211 507T153 399T132 265Q132 213 147 171T191 99T262 53T360 36Z" />
<glyph unicode="&#xd5;" glyph-name="Otilde" horiz-adv-x="646" d="M345 673Q356 689 374 704T410 719Q422 719 431 714T451 702T474 690T503 684Q521 684 532 695T554 728Q556 730 559 729T562 724Q550 697 533 681T486 665Q472 665 461 670T439 681T418 693T398
698Q385 698 374 690T352 667Q348 665 346 667T345 673ZM466 644Q520 644 561 627T632 578T676 502T691 406Q691 325 659 252T572 122T449 33T305 0Q248 0 205 17T131 66T86 140T70 232Q70 308 102 382T189 514T315 608T466 644ZM360 36Q412 36 460 60T547 129T608
236T631 376Q631 424 619 466T580 539T515 588T422 606Q355 606 302 580T211 507T153 399T132 265Q132 213 147 171T191 99T262 53T360 36Z" />
<glyph unicode="&#xd6;" glyph-name="Odieresis" horiz-adv-x="646" d="M406 667Q395 667 395 684Q395 694 405 707T431 721Q440 721 440 708Q440 694 430 681T406 667ZM483 667Q471 667 471 684Q471 694 481 707T506 721Q515 721 515 708Q515 694 505 681T483
667ZM466 644Q520 644 561 627T632 578T676 502T691 406Q691 325 659 252T572 122T449 33T305 0Q248 0 205 17T131 66T86 140T70 232Q70 308 102 382T189 514T315 608T466 644ZM360 36Q412 36 460 60T547 129T608 236T631 376Q631 424 619 466T580 539T515 588T422
606Q355 606 302 580T211 507T153 399T132 265Q132 213 147 171T191 99T262 53T360 36Z" />
<glyph unicode="&#xd7;" glyph-name="multiply" horiz-adv-x="301" d="M246 235Q250 237 256 237T267 237T275 234T276 228Q251 207 226 186T178 142Q189 121 200 100T221 61Q222 59 220 56T214 51T206 49T201 50Q191 68 181 87T160 126Q140 107 121 89T83 54Q78
51 72 50T61 49T53 52T52 58Q76 79 100 100T150 145Q139 165 129 184T107 223Q106 229 114 235T127 235Q134 223 144 204T168 161Q188 179 207 197T246 235Z" />
<glyph unicode="&#xd8;" glyph-name="Oslash" horiz-adv-x="645" d="M583 616Q635 587 662 533T690 406Q690 325 658 252T572 122T449 33T305 0Q261 0 226 10T163 39Q151 22 142 9T124 -16Q119 -22 111 -20T104 -13Q113 0 124 16T148 50Q110 82 90 128T70 232Q70
283 84 333T125 429T189 514T270 582T363 627T466 644Q521 644 566 624Q579 642 590 657Q596 662 604 660T610 652Q598 635 583 616ZM132 265Q132 165 186 103Q224 156 269 218T360 344T450 468T532 579Q486 605 422 605Q355 605 301 579T210 506T152 398T132 265ZM360
35Q412 35 460 59T546 128T607 236T630 376Q630 437 610 487T548 568Q511 519 466 458T374 333T281 205T199 90Q228 64 268 50T360 35Z" />
<glyph unicode="&#xd9;" glyph-name="Ugrave" horiz-adv-x="765" d="M692 669Q694 667 692 664T684 660Q672 663 655 669T621 682T588 696T561 709Q559 710 559 712T561 717Q571 725 585 729T601 731Q618 717 641 701T692 669ZM427 579Q401 589 362 597T281 605Q223
605 181 581T113 516T80 423T83 316Q82 312 78 310T72 312Q58 375 69 434T114 540T201 615T326 644Q368 644 407 635T477 612Q482 608 474 600Q421 558 381 506T312 395T269 275T254 153Q254 96 275 69T341 42Q393 42 442 76T544 181T654 361T780 622Q784 630 803
637T844 644Q860 644 860 637Q842 616 820 578T776 491T734 387T697 280T672 181T662 101Q662 44 700 44Q737 44 774 100Q777 103 780 101T783 93Q756 50 726 25T667 0Q638 0 620 19T602 78Q602 128 617 197T664 346Q573 175 484 88T306 0Q251 0 221 34T190 125Q190
179 206 238T252 357T326 472T427 579Z" />
<glyph unicode="&#xda;" glyph-name="Uacute" horiz-adv-x="765" d="M647 734Q652 737 665 733T688 724Q690 722 691 720T689 715Q679 708 664 700T631 685T595 670T561 658Q557 658 557 662T560 669Q580 681 604 697T647 734ZM427 579Q401 589 362 597T281 605Q223
605 181 581T113 516T80 423T83 316Q82 312 78 310T72 312Q58 375 69 434T114 540T201 615T326 644Q368 644 407 635T477 612Q482 608 474 600Q421 558 381 506T312 395T269 275T254 153Q254 96 275 69T341 42Q393 42 442 76T544 181T654 361T780 622Q784 630 803
637T844 644Q860 644 860 637Q842 616 820 578T776 491T734 387T697 280T672 181T662 101Q662 44 700 44Q737 44 774 100Q777 103 780 101T783 93Q756 50 726 25T667 0Q638 0 620 19T602 78Q602 128 617 197T664 346Q573 175 484 88T306 0Q251 0 221 34T190 125Q190
179 206 238T252 357T326 472T427 579Z" />
<glyph unicode="&#xdb;" glyph-name="Ucircumflex" horiz-adv-x="765" d="M603 746Q608 751 615 745Q628 728 648 711T689 684Q694 679 685 674T663 671Q644 679 629 690T597 715Q591 710 581 704T561 692T540 679T522 670Q512 670 517 679Q534 689 560 708T603
746ZM427 579Q401 589 362 597T281 605Q223 605 181 581T113 516T80 423T83 316Q82 312 78 310T72 312Q58 375 69 434T114 540T201 615T326 644Q368 644 407 635T477 612Q482 608 474 600Q421 558 381 506T312 395T269 275T254 153Q254 96 275 69T341 42Q393 42
442 76T544 181T654 361T780 622Q784 630 803 637T844 644Q860 644 860 637Q842 616 820 578T776 491T734 387T697 280T672 181T662 101Q662 44 700 44Q737 44 774 100Q777 103 780 101T783 93Q756 50 726 25T667 0Q638 0 620 19T602 78Q602 128 617 197T664 346Q573
175 484 88T306 0Q251 0 221 34T190 125Q190 179 206 238T252 357T326 472T427 579Z" />
<glyph unicode="&#xdc;" glyph-name="Udieresis" horiz-adv-x="765" d="M573 667Q562 667 562 684Q562 694 572 707T598 721Q607 721 607 708Q607 694 597 681T573 667ZM650 667Q638 667 638 684Q638 694 648 707T673 721Q682 721 682 708Q682 694 672 681T650
667ZM427 579Q401 589 362 597T281 605Q223 605 181 581T113 516T80 423T83 316Q82 312 78 310T72 312Q58 375 69 434T114 540T201 615T326 644Q368 644 407 635T477 612Q482 608 474 600Q421 558 381 506T312 395T269 275T254 153Q254 96 275 69T341 42Q393 42
442 76T544 181T654 361T780 622Q784 630 803 637T844 644Q860 644 860 637Q842 616 820 578T776 491T734 387T697 280T672 181T662 101Q662 44 700 44Q737 44 774 100Q777 103 780 101T783 93Q756 50 726 25T667 0Q638 0 620 19T602 78Q602 128 617 197T664 346Q573
175 484 88T306 0Q251 0 221 34T190 125Q190 179 206 238T252 357T326 472T427 579Z" />
<glyph unicode="&#xdd;" glyph-name="Yacute" horiz-adv-x="700" d="M697 734Q702 737 715 733T738 724Q740 722 741 720T739 715Q729 708 714 700T681 685T645 670T611 658Q607 658 607 662T610 669Q630 681 654 697T697 734ZM444 644Q461 644 472 635T487 606T485
552T464 469Q444 407 428 358T404 258Q398 215 410 193T461 171Q548 171 642 286T849 628Q860 638 874 641T902 644Q914 644 912 634Q809 414 719 268T543 33T375 -91T203 -128Q109 -128 58 -80T7 44Q7 82 22 118T67 183T140 233T239 259Q244 258 244 254T238 245Q192
239 160 224T106 186T76 134T66 71Q66 -5 112 -48T245 -92Q309 -92 366 -70T479 3T590 140T708 351Q680 305 647 266T577 197T502 151T427 134Q379 134 358 159T343 232Q351 287 367 342T400 448Q416 498 422 528T428 576T420 598T400 604Q377 604 357 587T325
551Q321 548 318 551T315 559Q324 575 338 590T370 618T406 637T444 644Z" />
<glyph unicode="&#xde;" glyph-name="Thorn" horiz-adv-x="784" d="M636 530Q680 528 715 514T774 478T811 426T824 363Q824 313 804 276T748 213T667 175T567 162Q528 162 500 174Q442 82 370 41T212 0Q176 0 146 10T95 38T62 81T50 137Q50 186 77 224T144 276Q153
278 150 269Q121 253 107 226T92 168Q92 141 101 117T129 74T179 46T252 35Q290 35 320 42T376 66T424 115T466 194Q455 202 445 214Q444 218 446 220T452 222Q462 212 471 207Q485 239 498 280T525 372Q536 410 547 442T572 502Q503 497 464 464T408 377Q405 374
402 376T398 386Q407 411 422 435T459 478T513 511T585 528Q620 594 665 630T767 681Q772 681 772 677T768 670Q724 658 693 626T636 530ZM571 182Q617 182 652 195T712 231T748 284T760 350Q760 413 726 453T625 501Q618 483 612 463T600 420Q563 279 509 190Q539
182 571 182Z" />
<glyph unicode="&#xdf;" glyph-name="germandbls" horiz-adv-x="338" d="M510 613Q510 645 492 664T439 683Q390 683 348 659T268 581T196 437T130 216Q97 80 57 -8T-29 -149T-125 -223T-230 -244Q-273 -244 -292 -224T-311 -171Q-311 -167 -309 -166T-304 -167Q-292
-188 -266 -203T-203 -218Q-171 -218 -145 -213T-96 -191T-53 -145T-13 -67T28 50T75 214Q108 341 153 435T251 591T360 685T472 716Q496 716 514 708T544 688T562 661T568 630Q568 584 544 548T484 482T405 425T327 369T266 307T242 230Q242 205 252 187T274 152T296
118T306 76Q306 44 280 22T198 0Q167 0 148 11T128 35Q128 39 131 46T139 61T150 77T164 90Q166 92 169 89T170 83Q158 71 158 54Q158 36 169 24T201 12Q227 12 241 26T255 62Q255 81 245 99T223 136T201 175T191 221Q191 260 214 291T273 349T350 404T427 461T486
529T510 613Z" />
<glyph unicode="&#xe0;" glyph-name="agrave" horiz-adv-x="327" d="M304 63Q306 65 309 63T311 57Q293 31 271 16T229 0Q206 0 200 32T206 110Q179 67 148 37T81 0Q57 0 44 22T31 73Q31 106 47 138T89 197T148 239T214 256Q249 256 269 239Q279 246 294 251T322
256Q326 256 326 251Q303 223 287 190T261 126T250 71T254 38Q259 32 271 34T304 63ZM112 37Q124 37 141 52T178 92T215 148T248 211Q244 224 230 232T196 240Q173 240 153 229T119 197T96 148T87 85Q87 63 94 50T112 37ZM274 325Q276 323 274 320T267 316Q241
323 211 335T161 360Q159 361 159 363T161 368Q174 379 189 384T208 386Q220 372 238 355T274 325Z" />
<glyph unicode="&#xe1;" glyph-name="aacute" horiz-adv-x="327" d="M304 63Q306 65 309 63T311 57Q293 31 271 16T229 0Q206 0 200 32T206 110Q179 67 148 37T81 0Q57 0 44 22T31 73Q31 106 47 138T89 197T148 239T214 256Q249 256 269 239Q279 246 294 251T322
256Q326 256 326 251Q303 223 287 190T261 126T250 71T254 38Q259 32 271 34T304 63ZM112 37Q124 37 141 52T178 92T215 148T248 211Q244 224 230 232T196 240Q173 240 153 229T119 197T96 148T87 85Q87 63 94 50T112 37ZM241 383Q248 387 262 382T291 370Q294
369 294 366T293 361Q283 354 269 348T238 335T206 324T177 314Q173 314 173 318T176 325Q190 334 208 350T241 383Z" />
<glyph unicode="&#xe2;" glyph-name="acircumflex" horiz-adv-x="327" d="M304 63Q306 65 309 63T311 57Q293 31 271 16T229 0Q206 0 200 32T206 110Q179 67 148 37T81 0Q57 0 44 22T31 73Q31 106 47 138T89 197T148 239T214 256Q249 256 269 239Q279 246 294
251T322 256Q326 256 326 251Q303 223 287 190T261 126T250 71T254 38Q259 32 271 34T304 63ZM112 37Q124 37 141 52T178 92T215 148T248 211Q244 224 230 232T196 240Q173 240 153 229T119 197T96 148T87 85Q87 63 94 50T112 37ZM214 395Q219 400 226 394Q238
377 255 364T292 342Q297 337 287 330T263 325Q246 332 232 339T203 355Q179 338 146 321Q142 321 141 324T141 331Q158 341 178 358T214 395Z" />
<glyph unicode="&#xe3;" glyph-name="atilde" horiz-adv-x="327" d="M304 63Q306 65 309 63T311 57Q293 31 271 16T229 0Q206 0 200 32T206 110Q179 67 148 37T81 0Q57 0 44 22T31 73Q31 106 47 138T89 197T148 239T214 256Q249 256 269 239Q279 246 294 251T322
256Q326 256 326 251Q303 223 287 190T261 126T250 71T254 38Q259 32 271 34T304 63ZM112 37Q124 37 141 52T178 92T215 148T248 211Q244 224 230 232T196 240Q173 240 153 229T119 197T96 148T87 85Q87 63 94 50T112 37ZM120 332Q132 346 148 358T175 374Q182
376 188 373T203 365T221 356T246 351Q261 351 271 357T290 377Q293 379 297 378T300 373Q289 355 274 341T230 326Q217 326 207 330T190 338T176 346T163 350Q155 349 147 343T128 326Q118 324 120 332Z" />
<glyph unicode="&#xe4;" glyph-name="adieresis" horiz-adv-x="327" d="M304 63Q306 65 309 63T311 57Q293 31 271 16T229 0Q206 0 200 32T206 110Q179 67 148 37T81 0Q57 0 44 22T31 73Q31 106 47 138T89 197T148 239T214 256Q249 256 269 239Q279 246 294 251T322
256Q326 256 326 251Q303 223 287 190T261 126T250 71T254 38Q259 32 271 34T304 63ZM112 37Q124 37 141 52T178 92T215 148T248 211Q244 224 230 232T196 240Q173 240 153 229T119 197T96 148T87 85Q87 63 94 50T112 37ZM158 316Q151 316 146 322T141 338Q141
344 144 351T153 366T166 378T183 383Q188 383 192 377T197 365Q197 357 194 349T185 333T172 321T158 316ZM249 316Q242 316 237 322T232 338Q232 344 235 351T245 366T258 378T275 383Q280 383 284 377T289 365Q289 357 286 349T276 333T263 321T249 316Z" />
<glyph unicode="&#xe5;" glyph-name="aring" horiz-adv-x="327" d="M304 63Q306 65 309 63T311 57Q293 31 271 16T229 0Q206 0 200 32T206 110Q179 67 148 37T81 0Q57 0 44 22T31 73Q31 106 47 138T89 197T148 239T214 256Q249 256 269 239Q279 246 294 251T322
256Q326 256 326 251Q303 223 287 190T261 126T250 71T254 38Q259 32 271 34T304 63ZM112 37Q124 37 141 52T178 92T215 148T248 211Q244 224 230 232T196 240Q173 240 153 229T119 197T96 148T87 85Q87 63 94 50T112 37ZM213 375Q201 375 194 367T187 345Q187
335 193 328T210 321Q221 321 228 329T235 351Q235 360 230 367T213 375ZM198 307Q184 307 177 315T170 336Q170 356 186 372T225 389Q238 389 245 381T252 360Q252 340 236 324T198 307Z" />
<glyph unicode="&#xe6;" glyph-name="ae" horiz-adv-x="419" d="M419 206Q419 149 268 127Q267 118 267 108T267 86Q267 61 278 47T316 33Q335 33 355 44T388 72Q392 74 394 71T394 63Q374 37 344 19T278 0Q243 0 228 17T212 67Q212 103 229 142Q194 85 158 45T80
0Q57 0 44 22T31 73Q31 106 47 138T89 197T148 239T214 256Q232 256 245 252T269 239Q278 247 293 257T321 268Q328 268 326 263Q314 249 304 235Q331 256 360 256Q386 256 402 240T419 206ZM364 194Q364 209 355 219T332 230Q309 230 293 209T270 142Q318 147
341 160T364 194ZM112 37Q123 37 140 52T177 92T215 148T248 211Q244 224 230 232T196 240Q173 240 153 229T119 197T96 148T87 85Q87 63 94 50T112 37Z" />
<glyph unicode="&#xe7;" glyph-name="ccedilla" horiz-adv-x="229" d="M197 166Q195 165 193 166T191 170Q199 192 189 208T154 224Q122 224 103 184T83 79Q83 33 120 33Q138 33 158 45T195 77Q199 79 202 77T203 69Q188 50 169 35T133 11Q114 3 109 -9T109 -34Q118
-59 100 -88T42 -133Q39 -132 39 -128T41 -122Q69 -108 77 -92T79 -54Q74 -40 80 -23T103 2Q98 0 92 0T81 0Q59 0 45 15T30 59Q30 94 44 129T81 193T131 238T184 256Q207 256 220 243T234 214Q234 208 230 201T221 187T209 174T197 166Z" />
<glyph unicode="&#xe8;" glyph-name="egrave" horiz-adv-x="237" d="M237 206Q237 149 86 128Q85 118 85 108T84 87Q84 61 96 47T134 33Q153 33 173 44T205 72Q209 74 211 71T212 63Q192 37 162 19T96 0Q61 0 46 17T30 67Q30 98 43 131T76 193T123 238T177 256Q204
256 220 241T237 206ZM150 230Q127 230 111 209T88 142Q136 147 159 160T182 194Q182 209 173 219T150 230ZM228 325Q230 323 228 320T221 316Q195 323 165 335T115 360Q113 361 113 363T115 368Q128 379 143 384T162 386Q174 372 192 355T228 325Z" />
<glyph unicode="&#xe9;" glyph-name="eacute" horiz-adv-x="237" d="M237 206Q237 149 86 128Q85 118 85 108T84 87Q84 61 96 47T134 33Q153 33 173 44T205 72Q209 74 211 71T212 63Q192 37 162 19T96 0Q61 0 46 17T30 67Q30 98 43 131T76 193T123 238T177 256Q204
256 220 241T237 206ZM150 230Q127 230 111 209T88 142Q136 147 159 160T182 194Q182 209 173 219T150 230ZM198 383Q205 387 219 382T248 370Q251 369 251 366T250 361Q240 354 226 348T195 335T163 324T134 314Q130 314 130 318T133 325Q147 334 165 350T198
383Z" />
<glyph unicode="&#xea;" glyph-name="ecircumflex" horiz-adv-x="237" d="M237 206Q237 149 86 128Q85 118 85 108T84 87Q84 61 96 47T134 33Q153 33 173 44T205 72Q209 74 211 71T212 63Q192 37 162 19T96 0Q61 0 46 17T30 67Q30 98 43 131T76 193T123 238T177
256Q204 256 220 241T237 206ZM150 230Q127 230 111 209T88 142Q136 147 159 160T182 194Q182 209 173 219T150 230ZM158 395Q163 400 170 394Q182 377 199 364T236 342Q241 337 231 330T207 325Q190 332 176 339T147 355Q123 338 90 321Q86 321 85 324T85 331Q102
341 122 358T158 395Z" />
<glyph unicode="&#xeb;" glyph-name="edieresis" horiz-adv-x="237" d="M237 206Q237 149 86 128Q85 118 85 108T84 87Q84 61 96 47T134 33Q153 33 173 44T205 72Q209 74 211 71T212 63Q192 37 162 19T96 0Q61 0 46 17T30 67Q30 98 43 131T76 193T123 238T177
256Q204 256 220 241T237 206ZM150 230Q127 230 111 209T88 142Q136 147 159 160T182 194Q182 209 173 219T150 230ZM120 316Q113 316 108 322T103 338Q103 344 106 351T115 366T128 378T145 383Q150 383 154 377T159 365Q159 357 156 349T147 333T134 321T120
316ZM211 316Q204 316 199 322T194 338Q194 344 197 351T207 366T220 378T237 383Q242 383 246 377T251 365Q251 357 248 349T238 333T225 321T211 316Z" />
<glyph unicode="&#xec;" glyph-name="igrave" horiz-adv-x="149" d="M188 325Q190 323 188 320T181 316Q155 323 125 335T75 360Q73 361 73 363T75 368Q88 379 103 384T122 386Q134 372 152 355T188 325ZM52 186Q49 184 47 187T46 194Q83 224 149 256Q157 256
157 247Q144 224 132 197T110 144T94 93T88 52Q88 32 102 32Q113 32 123 41T148 66Q150 68 153 66T154 58Q132 32 111 16T69 0Q34 0 34 33Q34 51 39 75T54 125T75 175T99 218Q88 212 75 203T52 186Z" />
<glyph unicode="&#xed;" glyph-name="iacute" horiz-adv-x="149" d="M174 383Q181 387 195 382T224 370Q227 369 227 366T226 361Q216 354 202 348T171 335T139 324T110 314Q106 314 106 318T109 325Q123 334 141 350T174 383ZM52 186Q49 184 47 187T46 194Q83
224 149 256Q157 256 157 247Q144 224 132 197T110 144T94 93T88 52Q88 32 102 32Q113 32 123 41T148 66Q150 68 153 66T154 58Q132 32 111 16T69 0Q34 0 34 33Q34 51 39 75T54 125T75 175T99 218Q88 212 75 203T52 186Z" />
<glyph unicode="&#xee;" glyph-name="icircumflex" horiz-adv-x="149" d="M134 395Q139 400 146 394Q158 377 175 364T212 342Q217 337 207 330T183 325Q166 332 152 339T123 355Q99 338 66 321Q62 321 61 324T61 331Q78 341 98 358T134 395ZM52 186Q49 184 47
187T46 194Q83 224 149 256Q157 256 157 247Q144 224 132 197T110 144T94 93T88 52Q88 32 102 32Q113 32 123 41T148 66Q150 68 153 66T154 58Q132 32 111 16T69 0Q34 0 34 33Q34 51 39 75T54 125T75 175T99 218Q88 212 75 203T52 186Z" />
<glyph unicode="&#xef;" glyph-name="idieresis" horiz-adv-x="149" d="M99 316Q92 316 87 322T82 338Q82 344 85 351T94 366T107 378T124 383Q129 383 133 377T138 365Q138 357 135 349T126 333T113 321T99 316ZM190 316Q183 316 178 322T173 338Q173 344 176
351T186 366T199 378T216 383Q221 383 225 377T230 365Q230 357 227 349T217 333T204 321T190 316ZM52 186Q49 184 47 187T46 194Q83 224 149 256Q157 256 157 247Q144 224 132 197T110 144T94 93T88 52Q88 32 102 32Q113 32 123 41T148 66Q150 68 153 66T154 58Q132
32 111 16T69 0Q34 0 34 33Q34 51 39 75T54 125T75 175T99 218Q88 212 75 203T52 186Z" />
<glyph unicode="&#xf0;" glyph-name="eth" horiz-adv-x="264" d="M176 479Q253 351 253 224Q253 179 238 139T199 69T147 20T94 0Q67 0 50 18T33 67Q33 108 49 146T92 212T150 251T212 249Q206 306 189 354T138 452Q118 437 99 422T62 391Q57 390 59 398T69 417Q80
427 96 438T131 463Q121 477 110 492T86 522Q71 540 67 560T67 601T84 641T117 674Q121 675 123 672T123 664Q101 638 103 609T130 548Q141 534 151 519T170 489Q183 497 196 504T221 519Q223 519 224 516T221 508Q210 501 199 494T176 479ZM124 34Q139 34 155
46T184 80T205 129T214 187Q214 216 205 228T178 240Q137 240 111 200T85 93Q85 70 94 52T124 34Z" />
<glyph unicode="&#xf1;" glyph-name="ntilde" horiz-adv-x="322" d="M314 70Q316 72 319 70T321 63Q303 38 280 19T233 0Q216 0 207 11T197 40Q197 75 209 116T243 199Q246 206 246 214Q246 224 237 224Q200 224 155 174T72 13Q71 10 66 8T53 4T39 1T28 0Q23 0
21 2T20 9Q37 52 54 103T85 207Q88 217 86 221T79 226Q68 226 58 217T40 196Q37 194 35 197T33 203Q38 210 46 219T66 236T89 250T113 256Q130 256 135 246T138 220Q133 198 128 179T114 135Q126 157 143 178T182 217T229 245T282 256Q294 256 300 250T307 236Q307
222 300 211Q279 173 265 133T250 60Q250 34 267 34Q278 34 289 43T314 70ZM124 332Q136 346 152 358T179 374Q186 376 192 373T207 365T225 356T250 351Q265 351 275 357T294 377Q297 379 301 378T304 373Q293 355 278 341T234 326Q221 326 211 330T194 338T180
346T167 350Q159 349 151 343T132 326Q122 324 124 332Z" />
<glyph unicode="&#xf2;" glyph-name="ograve" horiz-adv-x="258" d="M179 256Q214 256 231 235T248 186Q248 147 233 114T195 55T146 15T99 0Q65 0 48 20T30 73Q30 102 42 134T75 193T123 238T179 256ZM124 31Q155 31 176 63T198 153Q198 183 186 203T151 223Q119
223 99 192T79 101Q79 66 91 49T124 31ZM249 325Q251 323 249 320T242 316Q216 323 186 335T136 360Q134 361 134 363T136 368Q149 379 164 384T183 386Q195 372 213 355T249 325Z" />
<glyph unicode="&#xf3;" glyph-name="oacute" horiz-adv-x="258" d="M179 256Q214 256 231 235T248 186Q248 147 233 114T195 55T146 15T99 0Q65 0 48 20T30 73Q30 102 42 134T75 193T123 238T179 256ZM124 31Q155 31 176 63T198 153Q198 183 186 203T151 223Q119
223 99 192T79 101Q79 66 91 49T124 31ZM226 383Q233 387 247 382T276 370Q279 369 279 366T278 361Q268 354 254 348T223 335T191 324T162 314Q158 314 158 318T161 325Q175 334 193 350T226 383Z" />
<glyph unicode="&#xf4;" glyph-name="ocircumflex" horiz-adv-x="258" d="M179 256Q214 256 231 235T248 186Q248 147 233 114T195 55T146 15T99 0Q65 0 48 20T30 73Q30 102 42 134T75 193T123 238T179 256ZM124 31Q155 31 176 63T198 153Q198 183 186 203T151
223Q119 223 99 192T79 101Q79 66 91 49T124 31ZM193 395Q198 400 205 394Q217 377 234 364T271 342Q276 337 266 330T242 325Q225 332 211 339T182 355Q158 338 125 321Q121 321 120 324T120 331Q137 341 157 358T193 395Z" />
<glyph unicode="&#xf5;" glyph-name="otilde" horiz-adv-x="258" d="M179 256Q214 256 231 235T248 186Q248 147 233 114T195 55T146 15T99 0Q65 0 48 20T30 73Q30 102 42 134T75 193T123 238T179 256ZM124 31Q155 31 176 63T198 153Q198 183 186 203T151 223Q119
223 99 192T79 101Q79 66 91 49T124 31ZM98 332Q110 346 126 358T153 374Q160 376 166 373T181 365T199 356T224 351Q239 351 249 357T268 377Q271 379 275 378T278 373Q267 355 252 341T208 326Q195 326 185 330T168 338T154 346T141 350Q133 349 125 343T106
326Q96 324 98 332Z" />
<glyph unicode="&#xf6;" glyph-name="odieresis" horiz-adv-x="258" d="M179 256Q214 256 231 235T248 186Q248 147 233 114T195 55T146 15T99 0Q65 0 48 20T30 73Q30 102 42 134T75 193T123 238T179 256ZM124 31Q155 31 176 63T198 153Q198 183 186 203T151 223Q119
223 99 192T79 101Q79 66 91 49T124 31ZM126 316Q119 316 114 322T109 338Q109 344 112 351T121 366T134 378T151 383Q156 383 160 377T165 365Q165 357 162 349T153 333T140 321T126 316ZM217 316Q210 316 205 322T200 338Q200 344 203 351T213 366T226 378T243
383Q248 383 252 377T257 365Q257 357 254 349T244 333T231 321T217 316Z" />
<glyph unicode="&#xf7;" glyph-name="divide" horiz-adv-x="301" d="M85 156Q100 156 122 156T168 157T219 157T270 155Q274 155 274 152T270 144T262 137T251 132Q206 133 155 133T55 130Q49 132 54 142T85 156ZM205 206Q205 198 198 190T184 181Q178 181 172
188T166 202Q166 209 172 217T187 226Q194 226 199 219T205 206ZM164 85Q164 77 157 69T142 61Q136 61 130 68T124 81Q124 88 131 96T146 105Q152 105 158 98T164 85Z" />
<glyph unicode="&#xf8;" glyph-name="oslash" horiz-adv-x="258" d="M242 285Q249 290 255 289T258 280Q250 269 242 259T227 238Q238 229 243 215T248 186Q248 147 233 113T195 54T146 15T98 0Q76 0 61 9Q56 3 52 -3T43 -17Q37 -24 31 -22T27 -14Q33 -6 38 2T49
18Q30 37 30 73Q30 102 42 134T74 193T122 237T179 255Q200 255 214 247Q221 256 227 265T242 285ZM79 101Q79 79 83 66Q97 86 108 101T130 132T153 165T183 205Q171 223 150 223Q118 223 99 192T79 101ZM197 153Q197 174 191 191Q162 153 140 122T89 51Q101 30
123 30Q155 30 176 63T197 153Z" />
<glyph unicode="&#xf9;" glyph-name="ugrave" horiz-adv-x="332" d="M74 0Q32 0 32 46Q32 62 35 83T46 126T64 172T88 216Q77 209 67 202T49 186Q46 184 44 187T43 194Q60 212 91 231T152 261Q157 261 159 259T160 252Q128 210 109 161T89 66Q89 37 107 37Q120
37 139 54T179 100T221 165T261 238Q264 244 278 250T308 256Q323 256 317 248Q303 222 293 200T275 155T265 111T261 61Q261 29 278 29Q295 29 316 59Q319 61 322 59T324 53Q307 27 287 14T249 0Q207 0 207 49Q207 100 225 150Q187 81 145 41T74 0ZM261 325Q263
323 261 320T254 316Q228 323 198 335T148 360Q146 361 146 363T148 368Q161 379 176 384T195 386Q207 372 225 355T261 325Z" />
<glyph unicode="&#xfa;" glyph-name="uacute" horiz-adv-x="332" d="M74 0Q32 0 32 46Q32 62 35 83T46 126T64 172T88 216Q77 209 67 202T49 186Q46 184 44 187T43 194Q60 212 91 231T152 261Q157 261 159 259T160 252Q128 210 109 161T89 66Q89 37 107 37Q120
37 139 54T179 100T221 165T261 238Q264 244 278 250T308 256Q323 256 317 248Q303 222 293 200T275 155T265 111T261 61Q261 29 278 29Q295 29 316 59Q319 61 322 59T324 53Q307 27 287 14T249 0Q207 0 207 49Q207 100 225 150Q187 81 145 41T74 0ZM232 383Q239
387 253 382T282 370Q285 369 285 366T284 361Q274 354 260 348T229 335T197 324T168 314Q164 314 164 318T167 325Q181 334 199 350T232 383Z" />
<glyph unicode="&#xfb;" glyph-name="ucircumflex" horiz-adv-x="332" d="M74 0Q32 0 32 46Q32 62 35 83T46 126T64 172T88 216Q77 209 67 202T49 186Q46 184 44 187T43 194Q60 212 91 231T152 261Q157 261 159 259T160 252Q128 210 109 161T89 66Q89 37 107 37Q120
37 139 54T179 100T221 165T261 238Q264 244 278 250T308 256Q323 256 317 248Q303 222 293 200T275 155T265 111T261 61Q261 29 278 29Q295 29 316 59Q319 61 322 59T324 53Q307 27 287 14T249 0Q207 0 207 49Q207 100 225 150Q187 81 145 41T74 0ZM200 395Q205
400 212 394Q224 377 241 364T278 342Q283 337 273 330T249 325Q232 332 218 339T189 355Q165 338 132 321Q128 321 127 324T127 331Q144 341 164 358T200 395Z" />
<glyph unicode="&#xfc;" glyph-name="udieresis" horiz-adv-x="332" d="M74 0Q32 0 32 46Q32 62 35 83T46 126T64 172T88 216Q77 209 67 202T49 186Q46 184 44 187T43 194Q60 212 91 231T152 261Q157 261 159 259T160 252Q128 210 109 161T89 66Q89 37 107 37Q120
37 139 54T179 100T221 165T261 238Q264 244 278 250T308 256Q323 256 317 248Q303 222 293 200T275 155T265 111T261 61Q261 29 278 29Q295 29 316 59Q319 61 322 59T324 53Q307 27 287 14T249 0Q207 0 207 49Q207 100 225 150Q187 81 145 41T74 0ZM144 316Q137
316 132 322T127 338Q127 344 130 351T139 366T152 378T169 383Q174 383 178 377T183 365Q183 357 180 349T171 333T158 321T144 316ZM235 316Q228 316 223 322T218 338Q218 344 221 351T231 366T244 378T261 383Q266 383 270 377T275 365Q275 357 272 349T262
333T249 321T235 316Z" />
<glyph unicode="&#xfd;" glyph-name="yacute" horiz-adv-x="313" d="M256 383Q263 387 277 382T306 370Q309 369 309 366T308 361Q298 354 284 348T253 335T221 324T192 314Q188 314 188 318T191 325Q205 334 223 350T256 383ZM257 227Q261 237 279 246T311 256Q320
256 318 249Q296 187 275 129T230 8Q180 -121 106 -182T-53 -243Q-111 -243 -144 -216T-177 -151Q-177 -129 -162 -108T-121 -78Q-117 -77 -115 -80T-115 -86Q-131 -103 -131 -129Q-131 -171 -105 -197T-30 -223Q5 -223 34 -212T88 -173T138 -98T187 20Q199 53
208 79T228 136Q209 106 189 81T149 38T109 10T74 0Q54 0 45 12T36 45Q36 80 50 125T90 213Q79 206 70 200T53 186Q50 184 48 187T47 194Q54 201 66 209T92 226T120 242T149 256Q159 256 157 247Q141 227 129 203T107 154T94 105T89 62Q89 34 107 34Q123 34 145
54T188 103T228 166T257 227Z" />
<glyph unicode="&#xfe;" glyph-name="thorn" horiz-adv-x="295" d="M236 256Q259 256 272 235T285 184Q285 143 269 110T225 52T163 14T92 0Q75 0 63 4Q47 -46 33 -101T19 -205Q19 -228 42 -223Q50 -222 57 -219T72 -212Q75 -211 76 -215T75 -223Q69 -226 58 -230T33
-237T7 -242T-15 -244Q-34 -244 -34 -228Q-34 -180 -17 -114T26 28Q24 32 22 35T18 43Q18 48 34 52Q51 100 70 148T109 241T146 327T179 401Q198 443 196 452T183 456Q176 452 168 445T151 428Q149 427 146 430T145 436Q152 443 163 452T186 470T210 483T231 489Q243
489 246 480T245 459Q243 453 234 432T213 382T186 320T160 256T137 204T124 174Q134 188 146 202T173 229T204 248T236 256ZM117 20Q165 20 199 57T234 166Q234 191 225 206T198 221Q175 221 143 180T85 65Q82 57 79 49T73 31Q89 20 117 20Z" />
<glyph unicode="&#xff;" glyph-name="ydieresis" horiz-adv-x="313" d="M160 316Q153 316 148 322T143 338Q143 344 146 351T155 366T168 378T185 383Q190 383 194 377T199 365Q199 357 196 349T187 333T174 321T160 316ZM251 316Q244 316 239 322T234 338Q234
344 237 351T247 366T260 378T277 383Q282 383 286 377T291 365Q291 357 288 349T278 333T265 321T251 316ZM257 227Q261 237 279 246T311 256Q320 256 318 249Q296 187 275 129T230 8Q180 -121 106 -182T-53 -243Q-111 -243 -144 -216T-177 -151Q-177 -129 -162
-108T-121 -78Q-117 -77 -115 -80T-115 -86Q-131 -103 -131 -129Q-131 -171 -105 -197T-30 -223Q5 -223 34 -212T88 -173T138 -98T187 20Q199 53 208 79T228 136Q209 106 189 81T149 38T109 10T74 0Q54 0 45 12T36 45Q36 80 50 125T90 213Q79 206 70 200T53 186Q50
184 48 187T47 194Q54 201 66 209T92 226T120 242T149 256Q159 256 157 247Q141 227 129 203T107 154T94 105T89 62Q89 34 107 34Q123 34 145 54T188 103T228 166T257 227Z" />
<glyph unicode="&#x2013;" glyph-name="endash" horiz-adv-x="500" d="M35 163Q51 164 86 165T164 166T256 167T347 167T426 167T478 167Q481 165 480 161T473 153T462 146T450 142Q424 143 388 144T311 145T226 146T144 146T73 145T22 143Q19 145 21 153T35 163Z" />
<glyph unicode="&#x2014;" glyph-name="emdash" horiz-adv-x="1000" d="M35 163Q47 164 91 165T200 166T344 167T506 167T667 167T811 167T920 167T978 167Q981 165 980 161T973 153T962 146T950 142Q931 143 884 143T773 145T632 146T477 146T323 146T185 146T80
145T22 143Q19 145 21 153T35 163Z" />
<glyph unicode="&#x2018;" glyph-name="quoteleft" horiz-adv-x="94" d="M68 256Q63 258 59 268T55 291Q55 324 80 357T145 414Q149 414 150 411T147 403Q126 390 113 370T99 327Q99 305 110 300Q113 297 110 290T99 275T84 262T68 256Z" />
<glyph unicode="&#x2019;" glyph-name="quoteright" horiz-adv-x="94" d="M131 414Q136 412 140 402T144 379Q144 346 119 313T54 256Q50 256 49 259T52 267Q73 280 86 300T100 343Q100 365 89 370Q86 373 89 380T100 395T115 408T131 414Z" />
<glyph unicode="&#x201a;" glyph-name="quotesinglbase" horiz-adv-x="122" d="M84 70Q89 68 93 58T97 35Q97 2 72 -31T7 -88Q3 -88 2 -85T5 -77Q26 -64 39 -44T53 -1Q53 21 42 26Q39 29 42 36T53 51T68 64T84 70Z" />
<glyph unicode="&#x201c;" glyph-name="quotedblleft" horiz-adv-x="184" d="M68 256Q63 258 59 268T55 291Q55 324 80 357T145 414Q149 414 150 411T147 403Q126 390 113 370T99 327Q99 305 110 300Q113 297 110 290T99 275T84 262T68 256ZM158 256Q153 258 149
268T145 291Q145 324 170 357T235 414Q239 414 240 411T237 403Q216 390 203 370T189 327Q189 305 200 300Q203 297 200 290T189 275T174 262T158 256Z" />
<glyph unicode="&#x201d;" glyph-name="quotedblright" horiz-adv-x="184" d="M131 414Q136 412 140 402T144 379Q144 346 119 313T54 256Q50 256 49 259T52 267Q73 280 86 300T100 343Q100 365 89 370Q86 373 89 380T100 395T115 408T131 414ZM221 414Q226 412
230 402T234 379Q234 346 209 313T144 256Q140 256 139 259T142 267Q163 280 176 300T190 343Q190 365 179 370Q176 373 179 380T190 395T205 408T221 414Z" />
<glyph unicode="&#x201e;" glyph-name="quotedblbase" horiz-adv-x="212" d="M84 70Q89 68 93 58T97 35Q97 2 72 -31T7 -88Q3 -88 2 -85T5 -77Q26 -64 39 -44T53 -1Q53 21 42 26Q39 29 42 36T53 51T68 64T84 70ZM174 70Q179 68 183 58T187 35Q187 2 162 -31T97
-88Q93 -88 92 -85T95 -77Q116 -64 129 -44T143 -1Q143 21 132 26Q129 29 132 36T143 51T158 64T174 70Z" />
<glyph unicode="&#x2022;" glyph-name="bullet" horiz-adv-x="207" d="M100 91Q77 91 66 104T55 139Q55 165 74 186T126 207Q146 207 159 195T172 162Q172 133 152 112T100 91Z" />
<glyph unicode="&#x2039;" glyph-name="guilsinglleft" horiz-adv-x="197" d="M190 251Q197 253 199 246T193 233Q179 224 161 210T124 182T88 153T60 128Q81 111 104 87T141 43Q143 38 141 31T135 16T126 5T114 3Q95 32 69 59T22 104Q18 108 19 112T24 121Q62
155 106 189T190 251Z" />
<glyph unicode="&#x203a;" glyph-name="guilsinglright" horiz-adv-x="184" d="M-3 3Q-9 1 -11 7T-6 21Q6 32 22 46T55 74T90 102T121 126Q110 134 99 146T76 172T55 200T38 226Q36 231 41 237T52 247T66 253T79 251Q94 222 116 195T161 149Q165 146 164 141T159
133Q118 104 74 69T-3 3Z" />
</font>
</defs>
</svg>
